This file was generated by Ched 2.7.0.0.
#TITLE " "
#ARTIST ""
#DESIGNER ""
#DIFFICULTY 0
#PLAYLEVEL
#SONGID ""
#WAVE ""
#WAVEOFFSET 0
#JACKET ""
#REQUEST "ticks_per_beat 480"
#00002: 4
#BPM01: 172
#00008: 01
#TIL00: ""
#VOLUME: ""
#HISPEED 00
#MEASUREHS 00
#01012:14
#0101b:13
#01016:0014
#01010:41
#04212:1313
#0421b:12
#04217:0012
#04210:41
#00016:12121200
#00018:00000022
#0021b:1300000000130000
#00218:00000013000000000000000000001300
#00215:00000013
#00216:0000001300000000
#00214:00000013000000000000000000000000
#00312:1300000000130000
#00315:00000013000000000000000000001300
#00318:00000013
#00317:0000001300000000
#0031b:13
#00319:00000013000000000000000000000000
#0041b:1300000000130000
#00418:00000013000000000000000000001300
#00412:1300001300001300
#00415:00000013000000000000000000000000
#00512:1300000000130000
#00515:00000013000000000000000000001300
#0051b:1300001300001300
#00518:00000013000000000000000000000000
#01212:1400000013000013
#0121a:00140000
#0121b:0000000013000013
#01218:0000000000130000
#01215:00000013
#01216:00140000
#01718:0000130000000013
#01712:00130013
#01715:0013000014000000
#0171b:00000013
#01912:13001313
#01915:0000000000130000
#01918:00000013
#0191b:0000130000000013
#02712:0000002400130000
#02715:0023000000001300
#02718:0023000000000013
#0271b:0000000000130000
#0281b:0000000013000013
#02818:0000000000130000
#02815:24000013
#02812:0000240013000013
#0281a:24
#02817:00240000
#0321b:0000000013000013
#03215:0000240000130000
#03218:00000013
#03212:2400000013000013
#0321a:00240000
#03217:24
#03312:0000001300000013
#03315:0000000000130000
#0331b:0013000000000000
#03412:0000130013000013
#03415:1300001300000000
#03418:00000000130000000000001300000000
#0341b:1313
#03410:41
#04316:13
#04317:00120000
#0431b:12
#04312:00130000
#05112:1313
#05116:14141400
#0511b:00130000
#00615:00000013000000000000000013000000
#00617:0000001300000000
#00612:1300000000130000
#00618:0000000000000013
#00718:00000013000000000000000013000000
#00716:0000001300000000
#0071b:1300000000130000
#00715:0000000000000013
#00812:13000013000000000000130000000000
#0081b:0000001300000000
#00815:00000013
#00818:0000000000000013
#00919:0000000000131300
#0091b:13000013000000000000000000000000
#00916:00000000000000000000001300001300
#00912:0000001300000000
#01314:0000000000131300
#01317:00000000000000000000001300001300
#01615:0000001300130000
#01618:00130013
#0161b:0000000013000013
#01612:0000000013000013
#0161a:14
#01815:0014000000002400
#0181b:13
#01817:0000001400240000
#01812:2424
#0181a:0000240000000024
#01810:41
#02017:00000013000000000000000000000000
#02019:0000001300000000
#02018:00000013
#02012:00000033000033000000000013000000
#0201b:13
#02015:2300000000000023
#0201a:0024
#02116:00000013000000000000240024000000
#02114:0000001300000000
#02112:1324
#02118:23
#0211b:00000033000033000000000000000000
#0231b:13001313
#02318:0000000000130000
#02315:0000001300001300
#02312:0000130013000013
#02918:0013000000000000
#0291a:0000002400000000
#02916:0000002400240000
#02912:0000000000240000
#0311b:0000000000130000
#03118:0023000000001300
#03115:0023000000000013
#03112:0000000000130000
#0311a:0000002400000000
#0351b:0013000000131300
#03512:0013000013000000
#03515:0000001300001300
#03518:00131300
#03718:0013130000230000
#03715:00000013000000002300000000000000
#03712:0000001300002300
#0371b:00000023
#0381b:0000130013000013
#03818:1300001300000000
#03815:00000000130000000000001300000000
#03812:1313
#03912:0013000000131300
#0391b:0013000013000000
#03918:0000001300001300
#03915:00131300
#04115:0013130000000000
#04118:00000013000000000000000000000000
#0411b:0000001300000000
#04112:0000000023232323
#04418:12120000
#04416:00001212
#04512:13
#04518:12
#04516:00120000
#0451b:00130000
#0521b:1313
#05217:00130000
#05216:1414
#05212:00140000
#05312:13
#05316:14130000
#0531a:00140000
#05912:0000000000130000
#05915:0023000000001300
#05918:0023000000000013
#0591b:0000000000130000
#0591a:0000002400000000
#05910:41
#0601b:0000000013000013
#06018:0000000000130000
#06015:00000013
#06012:0000240013000013
#0601a:24
#06016:24240000
#06418:00000013
#06412:2400000024000013
#0641b:0000000000000013
#0641a:00240000
#06416:24242400
#06512:0000001300000000
#0651b:0013000000002300
#06518:0000000000230000
#06515:0023
#06115:13
#06118:13
#0611a:0000002400000000
#06116:0000002400240000
#06112:0000000000240000
#06712:2300002300130000
#06715:00000013
#06718:0023000000000013
#0671b:0000230000130000
#06812:0013000013000000
#06818:00000000130000000000001300000000
#0681b:1300000000000013
#06815:0000130000131300
#0711b:2300002300130000
#07118:00000013
#07115:0023000000000013
#07112:0000230000130000
#07212:1313
#07216:0013000000130013
#0721b:1300130000001313
#07217:0000001300000000
#07317:0013000000000000
#07312:0000001300000013
#07315:0000000000130000
#0241b:1313
#02418:0013000000000000
#02412:00130013
#02415:1300001300000000
#02417:0000000000130000
#02416:0000000000000013
#00115:0013000013000000
#00118:00130000000000130000130000000000
#00112:13000000001300000000000026000000
#0011b:00000013000000000000000023000000
#02217:0014000000002400
#02212:1300240000000024
#02215:0000001400240000
#0221a:2424
#0401b:0000000000000013
#03612:0000000000000013
#05012:13
#05016:1414
#0501b:0013
#01112:14
#01116:0014
#0141a:14
#01412:13
#01416:0014
#0151a:14
#01516:0014
#02517:0013000000000000
#02516:0000001300000000
#02512:00230013
#0251b:23000013
#0251a:0024
#0631b:0000000000130000
#06318:0023000000001300
#06315:0023000000000013
#06312:0000002400130000
#0461b:1313
#04613:12
#04617:0012
#0461f:11
#04717:13120000
#04713:12
#0471b:00130000
#04816:12120000
#04818:00001212
#0491b:1313
#04916:1212
#04918:0000120000230000
#04912:00130000
#04915:00000023
#0551b:1313
#05516:14141400
#05512:00130000
#05612:1313
#05616:14131400
#0561a:00140000
#0541b:13
#05416:1414
#05412:0013
#0261a:2424
#02615:2424
#0261b:0000000000000023
#02612:00240024
#02617:00240024
#02610:41
#07517:22222222
#03012:2400000024000023
#03017:2424
#0301a:00240024
#03015:00240024
#0581a:2424
#05816:24242424
#05812:0000240000002423
#0581f:21
#05717:22222222
#06615:0000000000000023
#06616:24242424
#06612:2424
#0661a:00240024
#06912:2624
#06918:2300260000240000
#06914:0000000000240000
#0691a:0024
#06915:00230000
#06212:2424
#06216:24242424
#0621a:00240024
#0621b:0000000000000023
#07018:0000000000000023
#07016:24242424
#0701a:2424
#07012:00240024
#00258:00000053000000000000000000000000
#0025b:53
#00256:0000005300000000
#00252:16
#00352:63
#00355:00000063000000000000000000000000
#00357:0000006300000000
#0045b:53
#00458:00000053000000000000000000000000
#00452:0000006300000000
#00552:63
#00555:00000063000000000000000000000000
#0055b:0000005300000000
#0125b:0000000000000053
#01252:3400000000000063
#01256:00340000
#0125a:00440000
#01358:0014000000000000
#01354:0014000000000000
#01758:00530000
#01755:0014
#0175a:0014
#01952:53
#0195b:00630000
#02052:0014
#02055:53
#0215a:0014
#02158:63
#02655:1414
#0265b:0000000000000063
#02652:00140014
#02758:0063000000000000
#0275a:0000001400000000
#02752:0000001400000000
#0285a:14
#02852:0000140000000053
#02855:14
#02857:00140000
#03252:1400000000000053
#0325a:00140000
#03257:14
#03255:00140000
#03452:0053
#03458:00000000000000000000005300000000
#00058:00000012
#00655:00000053000000000000000000000000
#00657:0000006300000000
#00758:00000063000000000000000000000000
#00756:0000005300000000
#00852:00000053000000000000000000000000
#0085b:0000006300000000
#0095b:00000063000000000000000000000000
#00952:0000005300000000
#0165b:0000000000000053
#0165a:44
#01855:0024000000000000
#01852:54
#01857:0000002400140000
#0185a:0000640000000014
#0235b:63
#02552:00633400
#0255b:53
#02556:0000002300000000
#02557:0023000000000000
#0255a:0044
#03052:0000000000000053
#0305a:00140014
#03057:1414
#03155:0053000000000000
#03152:0000001400000000
#0315a:0000001400000000
#0335b:0063000000000000
#03555:00000053
#03752:00000013
#0375b:00000013
#0385b:0063
#03855:00000000000000000000006300000000
#03958:00000063
#0525b:5353
#05257:00530000
#05256:5454
#05252:00540000
#05352:63
#05356:64630000
#0535a:00640000
#06052:0000000000000053
#0605b:0000000000000063
#0605a:44
#06056:00440000
#06452:3400000034000053
#06456:00340000
#0655b:0063000000004300
#06155:23
#06158:23
#0615a:0000004400000000
#06152:0000000000340000
#06655:0000000000000053
#06656:4444
#0665a:00440044
#06752:2300001300000000
#06758:0063001300000000
#0675b:00230000
#06858:00530000
#06952:36005434
#06954:0000000000240000
#0695a:00006444
#06958:0000460000240000
#07256:0023000000230053
#07252:5353
#0725b:00630000
#07257:0000002300000000
#07357:0063000000000000
#02458:0023000000000000
#0245b:5353
#02452:00630063
#02455:0000002300000000
#02457:0000000000230000
#02456:0000000000000023
#02257:0024000000000000
#02255:0000002400140000
#0225a:64
#02252:0000540000000014
#0405b:0000000000000053
#03652:0000000000000053
#05052:53
#05056:5464
#0505b:0063
#05152:0053
#05156:0054
#05757:00000012
#0295a:0000004400000000
#02952:0000000000340000
#01052:34
#01056:0034
#01152:34
#01156:0034
#0145a:44
#01456:0044
#0155a:44
#01556:0044
#0425b:52
#04257:0052
#05856:34443444
#05852:0000000000000053
#05955:0053000000000000
#0595a:0000001400000000
#05952:0000001400000000
#06256:44344434
#0625b:0000000000000063
#06358:0063000000000000
#06352:0000001400000000
#0635a:0000001400000000
#07058:0000000000000063
#07056:3434
#07052:00340034
#0715b:2300001300000000
#07155:0053001300000000
#07152:00230000
#04653:62
#04657:0062
#05652:6363
#05656:64636400
#0565a:00640000
#0545b:63
#05456:6454
#05452:0053
#0555b:0063
#05556:0064
#001320:00000016
#002320:26
#0023b1:1300002300000000
#002381:00000033000000000000000000000000
#002360:0000001300000000
#002320:0000000000230000
#003320:1300002300000000
#003350:00000033000000000000000000000000
#003371:0000001300000000
#0033b1:0000000000230000
#0043b1:1300002300000000
#004381:00000033000000000000000000000000
#004320:0000001300000000
#004360:0000000000230000
#005320:1300002300000000
#005350:00000033000000000000000000000000
#0053b1:0000001300000000
#005371:0000000000230000
#0063b1:13000023000000000000000000000000
#006350:00000013000000000000000000000000
#006320:0000002300000000
#006371:0000001300000000
#0063b1:0000000000230000
#007321:13000023000000000000000000000000
#007380:00000013000000000000000000000000
#0073b0:0000002300000000
#007361:0000001300000000
#007321:0000000000230000
#0083b1:13000023000000000000000000000000
#008320:00000013000000000000000000000000
#008350:0000002300000000
#0083b1:0000001300000000
#008371:0000000000230000
#009321:13000023000000000000000000000000
#0093b0:00000013000000000000000000000000
#009380:0000002300000000
#009321:0000001300000000
#009361:0000000000230000
#0103a1:0000001424000000
#0103a1:0000000000000014
#0113a1:24
#0113a1:0000001424000000
#0113a1:0000000000000014
#0123a1:24
#0123b1:0000000000000013
#013381:0024000000000000
#012320:0000000000000013
#013340:0024000000000000
#014320:0000001424000000
#014320:0000000000000014
#015320:24
#015320:0000001424000000
#015320:0000000000000014
#016320:24
#0163b0:0000000000000013
#017380:0023000000000000
#017380:00130000
#0173a0:0024
#018320:14240000
#018350:0054000000000000
#0183a1:00142400
#018371:0000005400000000
#018320:0000000014240000
#018350:0000000000001424
#019320:13
#019360:00230000
#0193b1:00130000
#019371:0023
#020351:13
#020321:00000033000033002400000000000000
#021381:13
#0213b1:00000033000033000000000000000000
#0213a1:0024
#0223a1:14240000
#022371:0054000000000000
#022320:00142400
#022350:0000005400000000
#0223a1:0000000014240000
#022371:0000000000001424
#0233b1:13
#023371:00230000
#0243b1:13230000
#024381:0053000000000000
#024320:00132300
#024350:0000005300000000
#0243b1:00001323
#024371:0000000000530000
#024320:00000013
#024360:0000000000000053
#025320:23
#0253b1:13230000
#025371:0053000000000000
#025320:00132400
#025360:0000005300000000
#0263b0:0000000000000013
#027380:0033000000000000
#0273a0:0000002400000000
#028320:0000000000000013
#029350:0023000000000000
#030320:0000000000000013
#031350:0033000000000000
#031320:0000002400000000
#032320:0000000000000013
#033360:0023000000000000
#0333b1:0013000000000000
#033371:0000002300000000
#0333b1:0000000013230000
#033381:0000000000001323
#034321:0013
#034351:00000000000000000000002300000000
#034380:00000000000000000000001300000000
#0343b0:0000000000000023
#035350:00000013
#036320:23
#036381:1323000000000000
#036350:0013230000000000
#0363b1:0000132300000000
#036320:0000001323000000
#036381:0000000013230000
#036350:0000000000132300
#0363b1:0000000000001323
#036320:0000000000000013
#037350:0023000000000000
#0383b0:0013
#038380:00000000000000000000002300000000
#038351:00000000000000000000001300000000
#038321:0000000000000023
#039381:00000013
#0403b1:23
#040350:1323000000000000
#040381:0013230000000000
#040320:0000132300000000
#0403b1:0000001323000000
#040350:0000000013230000
#040381:0000000000132300
#040320:0000000000001323
#0403b1:0000000000000013
#041381:0023000000000000
#0423b1:12
#042371:00220000
#042371:0012
#0423b1:00000022
#043361:00001323
#0433b0:00001222
#044320:13230000
#0443b0:00001323
#045320:00001323
#045381:00001222
#046331:12
#046371:00220000
#046371:0012
#046331:00000022
#047371:00001323
#047330:00001222
#0483b0:13230000
#048320:00001323
#050320:13
#050360:00230000
#050361:14
#0503a1:00240000
#0503b1:0013
#050371:00000023
#050360:0014
#050320:00000024
#051320:0013
#051360:00000023
#051361:0014
#0513a1:00000024
#0523b1:1333
#052371:00330023
#052360:1434
#052320:00340024
#053320:13003323
#053360:00330000
#053361:14003424
#0533a1:00340000
#0543b1:13
#054371:00230000
#054360:14
#054320:00240000
#054320:0013
#054360:00000023
#054361:0014
#0543a1:00000024
#0553b1:0013
#055371:00000023
#055360:0014
#055320:00000024
#056320:1333
#056360:00330023
#056361:1434
#0563a1:00340024
#058321:0000000000000013
#059351:0033000000000000
#059321:0000002400000000
#060321:0000000000000013
#061351:53
#061321:0023000000000000
#0603b0:0000000000000013
#061380:53
#0613b0:0023000000000000
#0623b0:0000000000000013
#063380:0033000000000000
#0633a0:0000002400000000
#064320:0000000000000013
#065360:0023000000000000
#0653b1:0013000000000000
#065371:0000002300000000
#066351:0000000000000013
#067321:53
#067351:0023000000000000
#067380:0013002300000000
#0673b0:00530000
#068380:00130000
#0683b0:0023
#069320:00001424
#069340:0000000000540000
#0693a1:00001424
#069381:0000000000540000
#070381:0000000000000013
#0713b1:53
#071381:0023000000000000
#071350:0013002300000000
#071320:00530000
#072320:13230000
#072360:0053000000000000
#0723b1:00132300
#072371:0000005300000000
#072320:00001323
#072360:0000000000530000
#072360:0000000000000013
#073320:0023000000000000
#073371:0013000000000000
#0733b1:0000002300000000
#073381:0000000013230000
#0733b1:0000000000001323
