This file was generated by Ched 2.7.0.0.
#TITLE ""
#ARTIST ""
#DESIGNER ""
#DIFFICULTY 0
#PLAYLEVEL
#SONGID ""
#WAVE ""
#WAVEOFFSET 0
#JACKET ""
#REQUEST "ticks_per_beat 480"
#00002: 4
#BPM01: 172
#00008: 01
#TIL00: ""
#VOLUME: ""
#HISPEED 00
#MEASUREHS 00
#00017:12121222
#0061a:14
#00618:0000000000130000
#00616:0000000000000000001300001300000000000000000000001300000000000000
#00619:0000000000000013
#00614:0000000000000013
#00612:13000014000000000000000000000000
#00617:0000001300000000000000000000000000000000000000000000000000000000
#0121b:1300000013000013
#01212:1300130000000013
#01217:0013000000001300
#01216:0000001300130000
#01219:0000000000130000
#01214:00000013
#01912:1313
#01917:13
#01916:0000000000141414
#0191b:00130013
#02816:2400000000140000
#02814:00000013
#02812:0000240013000013
#02819:00000013
#0281b:0000000013000013
#0281a:24
#03412:1400130013000013
#03416:0000001400000000
#0341b:0000130013000013
#0341a:14
#03415:00000013
#03418:00000000000000000000001300000000
#03410:41
#03516:0000001314141400
#0351b:0013130000130000
#03512:0013000013001300
#03718:0013000000000000
#03715:00000013000000000000000000000000
#0371b:00130000
#03714:0000001300230000
#03712:00130024
#03719:0000001300230000
#0371a:00000024
#03716:0024
#06815:00000000000000000000001300001300
#0681b:1300000013000013
#06819:0013000000000000
#06812:00130000
#06817:00130000
#06818:0000000000131300
#00118:1616000000002600
#00112:00160016000000000000000026000000
#00116:00000000001400140000140000000000
#0011a:00141400
#00517:00000000000013000000000000000013
#00512:14
#00516:00000014000000000000000013000000
#0051b:13000013000000000000000000000000
#00518:0000000000130000
#00514:0000000000000013
#00918:00000013
#00914:0000000000000016
#00912:14000000000000000000001300000000
#00915:0000000000130000
#00917:0000000000000000001300001300000000000000000000000000000000000000
#0091b:13
#00916:0000001300000000000000000000000000000000000000000000000000000000
#0091a:00000014000000000000000000000000
#01017:1300001212000000
#01012:1200000000000012
#0101b:0013
#01010:41
#01115:0000000000000016
#01117:1300001212000000
#01112:12
#0111b:0013
#01312:0000130000140000
#01315:0000001313000000
#0131b:00130000
#01318:00000000000000130013001400000000
#01314:00000014
#01316:0000000000000016
#01612:1313
#01616:0013000000000000
#0161b:1300130000000013
#01617:0000001300000000
#01619:0013000000000000
#01614:0000001300000000
#01618:0000000000130000
#01615:00000013
#01712:0013130000000000
#01716:00130000
#0171a:0000000000130000
#01713:00000000000000000000001300000000
#01719:00000013
#01714:13000000000000000000000000130000
#01718:0000000000000013
#01715:00000000000000000000000000000013
#02012:1300001300000000
#02016:00130000
#02018:0000000013000013
#02015:0000000013000023
#02019:00000013000000000000000000000000
#0201b:2300001300000000
#02117:00131300
#02116:0000000000141400
#02115:0000000000000013
#02118:00000000000000000000000000000013
#0211b:1300001300000000
#02114:00000013000000000000000000000000
#02112:2300001323002400
#0211a:0000000000240000
#0231b:1313
#02316:1300001414141414
#02312:00130013
#02416:1414141400140014
#02417:0014
#02415:00000014
#0241b:13
#02712:1400240000130013
#0271a:0024000000001400
#02716:2424240000001400
#03216:2400000000141314
#0321a:00240014
#0321b:0013
#03212:2400000014000014
#04115:0013001600000000
#04118:00000013000000000000000000000000
#04112:0000130024242424
#0411b:00130000
#04117:0000000013131313
#05216:0013000000130000
#05217:0000001300000013
#05212:1414
#0521a:00140014
#05318:0000000000000013
#05315:00000000000000000000000000000013
#0531a:14
#05316:14140000
#05312:00140013
#0531b:00000013
#06412:2400240000000013
#06417:0000000000000013
#06418:0000000000130000
#0641a:24000014
#06416:0024002414001300
#06512:0000131300002400
#0651b:1313000000000000
#06515:0000000000000013
#06518:00000000000000000000000000000013
#06516:0024
#06514:0000000000230000
#06519:0000000000230000
#0651a:00000024
#05719:1313
#05714:00130000
#05713:00000013
#05717:22222200
#06712:0000000000161300
#06718:0000000000001316
#06716:0023000000000000
#0671b:0023000000000000
#07216:00000013
#07212:1300000013000013
#07214:0013000000130000
#07217:000000000000000000000000000000000000000000000000000000000000000000000000000000000000000000000000000000000000000000000000000000000000000000000000000000000000000000000000000000000000000000000000000000000000000000000000000000000000000000000000000000000000000000000000000000000000000000000000000000000000000000000000000000000000000000000000000000000000000000000000000000000000000000000000000000000000000000000000000000000000000000000000000000000000000000000000000000000000000000000000000000000000000000000000000000000000000000000000000000000000000000000000000000000000000000000000000000000000000000000000000000000000000000000000000000000000000000000000000000000000000000000000000000000000000000000000000000000000000000000000000000000000000000000000000000000000000000000000000000000000000000000000000000000000000000000000000000000000000000000000000000000000000000000000000000000000000000000000000000000000000000000000000000000000000000000000000000000000000000000000000000000000000000000000000000000000000000000000000000000000000000000000000000000000000000000000000000000000000000000000000000000000000000000000000000000000000000000000000000000000000000000000000000000000000000000000000000000000000000000000000000000000000000000000000000000000000000000000000000000000000000000000000000000000000000000000000000000000000000000000000000000000000000000000000000000000000000000000000000000000000000000000000000000000000000000000000000000000000000000000000000000000000000000000000000000000000000000000000000000000000000000000000000000000000000000000000000000000000000000000000000000000000000000000000000000000000000000000000000000000000000000000000000000000000000000000000000000000000000000000000000000000000000000000000000000000000000000000000000000000000000000000000000000000000000000000000000000000000000000000000000000000000000000000000000000000000000000000000000000000000000000000000000000000000000000000000000000000000000000000130000000000000000000000000000000000000000000000000000000000000000000000000000000000000000000000000000000000000000000000000000000000000000000000000000000000000000000000000000000000000000000000000000000000000000000000000000000000000000000000000000000000000000000000000000000000000000000000000000000000000000000000000000000000000000000000000000000000000000000000000000000000000000000000000000000000000000000000000000000000000000000000000000000000000000000000000000000000000000000000000000000000000000000000000000000000000000000000000000000000000000000000000000000000000000000000000000000000000000000000000000000000000000000000000000000000000000000000000000000000000000000000000000000000000000000000000000000000000000000000000000000000000000000000000000000000000000000000000000000000000000000000000000000000000000000000000000000000000000000000000000000000000000000000000000000000000000000000000000000000000000000000000000000000000000000000000000000000000000000000000000000000000000000000000000000000000000000000000000000000000000000000000000000000000000000000000000000000000000000000000000000000000000000000000000000000000000000000000000000000000000000000000000000000000000000000000000000000000000000000000000000000000000000000000000000000000000000000000000000000000000000000000000000000000000000000000000000000000000000000000000000000000000000000000000000000000000000000000000000000000000000000000000000000000000000000000000000000000000000000000000000000000000000000000000000000000000000000000000000000000000000000000000000000000000000000000000000000000000000000000000000000000000000000000000000000000000000000000000000000000000000000000000000000000000000000000000000000000000000000000000000000000000000000000000000000000000000000000000000000000000000000000000000000000000000000000000000000000000000000000000000000000000000000000000000000000000000000000000000000000000000000000000000000000000000000000000000000000000000014
#0721b:0000130000000013
#07219:0000001300000000
#07315:14140000
#07317:000000000000000000000000000000000000000000000000000000000000000000000000000000000000000000000000000000000000000000000000000000000000000000000000000000000000000000000000000000000000000000000000000000000000000000000000000000000000000000000000000000000000000000000000000000000000000000000000000000000000000000000000000000000000000000000000000000000000000000000000000000000000000000000000000000000000000000000000000000000000000000000000000000000000000000000000000000000000000000000000000000000000000000000000000000000000000000000000000000000000000000000000000000000000000000000000000000000000000000000000000000000000000000000000000000000000000000000000000000000000000000000000000000000000000000000000000000000000000000000000000000000000000000000000000000000000000000000000000000000000000000000000000000000000000000000000000000000000000000000000000000000000000000000000000000000000000000000000000000000000000000000000000000000000000000000000000000000000000000000014000000000000000000000000000000000000000000000000000000000000000000000000000000000000000000000000000000000000000000000000000000000000000000000000000000000000000000000000000000000000000000000000000000000000000000000000000000000000000000000000000000000000000000000000000000000000000000000000000000000000000000000000000000000000000000000000000000000000000000000000000000000000000000000000000000000000000000000000000000000000000000000000000000000000000000000000000000000000000000000000000000000000000000000000000000000000000000000000000000000000000000000000000000000000000000000000000000000000000000000000000000000000000000000000000000000000000000000000000000000000000000000000000000000000000000000000000000000000000000000000000000000000000000000000000000000000000000000000000000000000000000000000000000000000000000000000000000000000000000000000000000000000000000000000000000000000000000000000000000000000000000000000000000000000000000000000000000000000000000000000000000000000000000000000000000000000000000000000000000000000000000000000000000000000000000000000000000000000000000000000000000000000000000000000000000000000000000000000000000000000000000000000000000000000000000000000000000000000000000000000000000000000000000000000000000000000000000000000000000000000000000000000000000000000000000000000000000000000000000000000000000000000000000000000000000000000000000000000000000000000000000000000000000000000000000000000000000000000000000000000000000000000000000000000000000000000000000000000000000000000000000000000000000000000000000000000000000000000000000000000000000000000000000000000000000000000000000000000000000000000000000000000000000000000000000000000000000000000000000000000000000000000000000000000000000000000000000000000000000000000000000000000000000000000000000000000000000000000000000000000000000000000000000000000000000000000000000000000000000000000000000000000000000000000000000000000000000000000000000000000000000000000000000000000000000000000000000000000000000000000000000000000000000000000000000000000000000000000000000000000000000000000000000000000000000000000000000000000000000000000000000000000000000000000000000000000000000000000000000000000000000000000000000000000000000000000000000000000000000000000000000000000000000000000000000000000000000000000000000000000000000000000000000000000000000000000000000000000000000000000000000000000000000000000000000000000000000000000000000000000000000000000000000000000000000000000000000000000000000000000000000000000000000000000000000000000000000000000000000000000000000000000000000000000000000000000000000000000000000000000000000000000000000000000000000000000000000000000000000000000000000000000000000000000000000000000000000000000000000000000000000000000000000000000000000000000000000000000000000000000000000000000000000000000000000000000000000000000000000000000000000000000000000000000000000000000000000000000000000000000
#07312:0013000000130000
#0731b:0013000000000013
#07316:0000000014141414
#01515:0000000000000016
#01517:0000001212000000
#0151c:12
#01516:13
#01512:0013
#04216:1214
#0421c:0012
#0421a:14
#04210:41
#0431a:14
#04317:12
#04313:00140000
#04319:0014
#0441c:12
#04412:00120000
#04417:12
#0441b:00001212
#0021a:14
#00216:00000014000013000000000000000000
#00212:00000013000000000000000000000000
#00215:0000000000130000
#00217:00000013
#00219:0000000000000013
#00312:14
#00316:00000014000000000000000013000000
#0031b:13000013000000000000000000000000
#00317:0000001300000000
#00318:0000000000130000
#00314:0000000000000013
#0041a:14
#00416:00000014000013000000000000000000
#00412:13000013000000000000000000000000
#00415:0000000000130000
#00417:00000013
#00419:0000000000000013
#00717:0000000000000000001300001300000000000000000000001300000000000000
#00714:0000000000000013
#00719:0000000000000013
#00712:14
#00715:0000000000130000
#0071b:13
#00716:0000001300000000000000000000000000000000000000000000000000000000
#0071a:00000014000000000000000000000000
#00816:0000000000000000001300001300000000000000000000001300000000000000
#00819:0000000000000013
#00814:0000000000000013
#0081a:14
#00818:0000000000130000
#00812:13000014000000000000000000000000
#00817:0000001300000000000000000000000000000000000000000000000000000000
#0311b:0000000000130013
#03112:0024000000001400
#03116:2424240000001400
#0311a:14240000
#0331a:0014000024000000
#03317:0013000000002400
#03316:0000001400000000
#03315:0024
#03312:00000024
#03616:1313130000000000
#03612:0000130013000013
#0361b:0000001300001300
#03617:0000000013131300
#0381b:0000130013000013
#03816:0000001400000000
#03812:1400130013000013
#0381a:14
#03818:00000013
#03815:00000000000000000000001300000000
#03916:0000000014141400
#03917:0000001300000000
#03912:0013130000130000
#0391b:0013000013001300
#04017:1313130000000000
#0401b:0000130013000013
#04012:0000001300001300
#04016:0000000013131300
#0451c:00120000
#04518:12
#04513:00001212
#04618:12
#04612:1412
#04616:0014
#0461f:11
#04712:14
#04717:12
#04719:00140000
#04713:0014
#04812:12
#0481c:00120000
#04817:12
#04813:00001212
#04912:00120000
#04916:12
#0491b:0012
#04914:0000000000240000
#04918:00000024
#06016:2400240000140000
#06019:00000013
#0601b:0000000013000013
#06014:00000013
#06012:2400000013000013
#06018:0014000000000000
#0591a:14
#0591b:0000000000130013
#05916:2424000000141414
#05912:0024000000001300
#05914:000000000000000000000000000000000000000000000000000000000000000000000000000000000000000000000000000000000000000000000000000000000000000000000000000000000000000000000000000000000000000000000000242400000000000000000000000000000000000000000000000000000000000000000000000000000000000000000000000000000000000000000000000000000000000000000000000000000000000000000000000000000000000000000000000000000000000000000000000000000000000000000000000000000000000000000000000000000000000000000000000000000000000000000000000000000000000000000000000000000000000000000000000000000000000000000000000000000000000000000000000000000000000000000000000000000000000000000000000000000000000000000000000000000000000000000000000000000000000000000000000000000000000000000000000000000000000000000000
#05910:41
#06312:1400000000130013
#06316:2424000000141414
#0631b:00000013
#0631a:0024000000000000
#06318:000000000000000000000000000000000000000000000000000000000000000000000000000000000000000000000000000000000000000000000000000000000000000000000000000000000000000000000000000000000000000000000000242400000000000000000000000000000000000000000000000000000000000000000000000000000000000000000000000000000000000000000000000000000000000000000000000000000000000000000000000000000000000000000000000000000000000000000000000000000000000000000000000000000000000000000000000000000000000000000000000000000000000000000000000000000000000000000000000000000000000000000000000000000000000000000000000000000000000000000000000000000000000000000000000000000000000000000000000000000000000000000000000000000000000000000000000000000000000000000000000000000000000000000000000000000000000000000000
#07118:0000000000160000
#0711b:00000013
#07115:00000013
#07112:0023000000000016
#07117:0023000000000000
#01417:0000001212000000
#0141c:1200000000000012
#01416:13
#01412:0013
#02512:00240013
#02517:00000013
#02516:24240000
#05018:00000000000013001300000000000013
#05015:13000000000000130000000000001300
#0501a:14
#05012:0014
#0511b:00000000000000000013000013000000
#05116:0000000000140000
#05112:14001313
#05118:00001300000000130000000000000000
#05115:00000013000013000000000000000000
#0511a:00140000
#05415:00000000000013001300000000000013
#05418:13000000000000130000000000001300
#05412:14
#0541a:0014
#05512:00000000140000000013000013000000
#05516:0000000000140000
#0551b:00001313
#05515:00001300000000130000000000000000
#05518:00000013000013000000000000000000
#0551a:14
#05617:0013000000130000
#05616:0000001300000013
#0561a:1414
#05612:00140014
#02616:2400000000000024
#0261a:2400000000000024
#02614:00242400
#02612:00000024
#02610:41
#0661b:2323
#06617:0023000000230023
#06612:2400230000002323
#06616:0000002300000000
#02918:00000000000000000000000000000000000000000000000023000000000000000000000000000000000000630000000000000000000000000000000000000000
#02912:00000000000000000000000000000000000000000000000023000000000000000000000000000000000000630000000000000000000000000000000000000000
#02915:00000000000000000000000000000000000000000000000000000063000000000000000000000000230000000000000000000000000000000000000000000000
#0291b:00000000000000000000000000000000000000000000000000000063000000000000000000000000230000000000000000000000000000000000000000000000
#02919:00000000000000000000000000000000000000000000000000630000000000000000000000000000000063000000000000000000000000000000000000000000
#0291a:00000000000000000000000000000000000000000000000000006300000000000000000000000000006300000000000000000000000000000000000000000000
#02913:00000000000000000000000000000000000000000000000000630000000000000000000000000000000063000000000000000000000000000000000000000000
#02914:00000000000000000000000000000000000000000000000000006300000000000000000000000000006300000000000000000000000000000000000000000000
#06912:2300000000250000
#06915:25
#06916:0023000025000000
#06919:0025000000000000
#0691b:0023
#06917:0000000000230000
#07517:22222222
#0181a:24002424
#01812:0000240000280028
#01810:41
#03016:2400000000000024
#03012:2400000000000024
#03018:00242400
#0301a:00000024
#05816:2400000000000024
#05812:2400000024000024
#0581a:00240024
#0581f:21
#06115:00000000000000000000000000000000000000000000000023000000000000000000000000000000000000630000000000000000000000000000000000000000
#0611b:00000000000000000000000000000000000000000000000023000000000000000000000000000000000000630000000000000000000000000000000000000000
#06118:00000000000000000000000000000000000000000000000000000063000000000000000000000000230000000000000000000000000000000000000000000000
#06112:00000000000000000000000000000000000000000000000000000063000000000000000000000000230000000000000000000000000000000000000000000000
#06114:00000000000000000000000000000000000000000000000000630000000000000000000000000000000063000000000000000000000000000000000000000000
#06113:00000000000000000000000000000000000000000000000000006300000000000000000000000000006300000000000000000000000000000000000000000000
#0611a:00000000000000000000000000000000000000000000000000630000000000000000000000000000000063000000000000000000000000000000000000000000
#06119:00000000000000000000000000000000000000000000000000006300000000000000000000000000006300000000000000000000000000000000000000000000
#06216:2400000000000024
#0621a:2400000024000024
#06212:00240024
#07012:2323
#07016:0023000000230023
#0701b:0000230000002323
#07017:0000002300000000
#0701a:24
#02212:24002424
#0221a:00240000
#02216:0000000000280028
#0065a:54
#00656:0000000000000000002300006300000000000000000000000000000000000000
#00657:0000002300000000000000000000000000000000000000000000000000000000
#00652:00000064000014000000000000000000
#0125b:6300430000000053
#01252:3300530000000063
#01257:0023000000000000
#01256:0000002300000000
#01355:0013000000000000
#01358:0013000000000000
#01952:53
#0195b:00530000
#0265a:0000000000000064
#02656:34
#02654:00343400
#02652:00000034
#02756:2464244400000000
#0275a:0064004400000000
#02752:00240000
#02852:0000340000000053
#0285b:0000000000000063
#0285a:54
#02856:34440000
#03452:0053
#03556:00000064
#03752:00000014
#0375a:00000014
#0665b:5353
#06657:0023000000230053
#06652:3400630034000053
#06656:0000002300000000
#0665a:00440044
#01652:5353
#01656:0023000000000000
#0165b:0000630000000063
#01657:0000002300000000
#01658:0000000000630000
#01655:00000053
#01752:00630000
#01756:00530000
#01757:0013
#0175b:0013
#02052:53
#02058:0063
#02055:0053
#0215a:0000000000440000
#02152:00000034
#0215b:63
#0235b:63
#02456:54640000
#02457:0054
#02455:00000064
#0245b:1313
#02452:00130013
#02556:54641400
#02552:00640000
#0255a:0014
#0255b:13
#05757:12121200
#06452:3400540034000053
#0645a:64440000
#06456:0024002400000000
#0655b:0063000000000000
#0655a:00000044
#06552:00000034
#06756:0053001300000000
#0675b:0053001300000000
#06852:00530000
#06952:5300330000250000
#06955:55350000
#06956:0023000065004500
#06959:0025000000000000
#0695b:00006343
#06957:0000000000230000
#07257:000000000000000000000000000000000000000000000000000000000000000000000000000000000000000000000000000000000000000000000000000000000000000000000000000000000000000000000000000000000000000000000000000000000000000000000000000000000000000000000000000000000000000000000000000000000000000000000000000000000000000000000000000000000000000000000000000000000000000000000000000000000000000000000000000000000000000000000000000000000000000000000000000000000000000000000000000000000000000000000000000000000000000000000000000000000000000000000000000000000000000000000000000000000000000000000000000000000000000000000000000000000000000000000000000000000000000000000000000000000000000000000000000000000000000000000000000000000000000000000000000000000000000000000000000000000000000000000000000000000000000000000000000000000000000000000000000000000000000000000000000000000000000000000000000000000000000000000000000000000000000000000000000000000000000000000000000000000000000000000000000000000000000000000000000000000000000000000000000000000000000000000000000000000000000000000000000000000000000000000000000000000000000000000000000000000000000000000000000000000000000000000000000000000000000000000000000000000000000000000000000000000000000000000000000000000000000000000000000000000000000000000000000000000000000000000000000000000000000000000000000000000000000000000000000000000000000000000000000000000000000000000000000000000000000000000000000000000000000000000000000000000000000000000000000000000000000000000000000000000000000000000000000000000000000000000000000000000000000000000000000000000000000000000000000000000000000000000000000000000000000000000000000000000000000000000000000000000000000000000000000000000000000000000000000000000000000000000000000000000000000000000000000000000000000000000000000000000000000000000000000000000000000000000000000000000000000000000000000000000000000000000000000000000000000000000000000000000000000000000000530000000000000000000000000000000000000000000000000000000000000000000000000000000000000000000000000000000000000000000000000000000000000000000000000000000000000000000000000000000000000000000000000000000000000000000000000000000000000000000000000000000000000000000000000000000000000000000000000000000000000000000000000000000000000000000000000000000000000000000000000000000000000000000000000000000000000000000000000000000000000000000000000000000000000000000000000000000000000000000000000000000000000000000000000000000000000000000000000000000000000000000000000000000000000000000000000000000000000000000000000000000000000000000000000000000000000000000000000000000000000000000000000000000000000000000000000000000000000000000000000000000000000000000000000000000000000000000000000000000000000000000000000000000000000000000000000000000000000000000000000000000000000000000000000000000000000000000000000000000000000000000000000000000000000000000000000000000000000000000000000000000000000000000000000000000000000000000000000000000000000000000000000000000000000000000000000000000000000000000000000000000000000000000000000000000000000000000000000000000000000000000000000000000000000000000000000000000000000000000000000000000000000000000000000000000000000000000000000000000000000000000000000000000000000000000000000000000000000000000000000000000000000000000000000000000000000000000000000000000000000000000000000000000000000000000000000000000000000000000000000000000000000000000000000000000000000000000000000000000000000000000000000000000000000000000000000000000000000000000000000000000000000000000000000000000000000000000000000000000000000000000000000000000000000000000000000000000000000000000000000000000000000000000000000000000000000000000000000000000000000000000000000000000000000000000000000000000000000000000000000000000000000000000000000000000000000000000000000000000000000000000000000000000000000000000000000000000000000000000024
#07252:0000000000000053
#0725b:0000000000000063
#07355:24240000
#07357:000000000000000000000000000000000000000000000000000000000000000000000000000000000000000000000000000000000000000000000000000000000000000000000000000000000000000000000000000000000000000000000000000000000000000000000000000000000000000000000000000000000000000000000000000000000000000000000000000000000000000000000000000000000000000000000000000000000000000000000000000000000000000000000000000000000000000000000000000000000000000000000000000000000000000000000000000000000000000000000000000000000000000000000000000000000000000000000000000000000000000000000000000000000000000000000000000000000000000000000000000000000000000000000000000000000000000000000000000000000000000000000000000000000000000000000000000000000000000000000000000000000000000000000000000000000000000000000000000000000000000000000000000000000000000000000000000000000000000000000000000000000000000000000000000000000000000000000000000000000000000000000000000000000000000000000000000000000000000000000024000000000000000000000000000000000000000000000000000000000000000000000000000000000000000000000000000000000000000000000000000000000000000000000000000000000000000000000000000000000000000000000000000000000000000000000000000000000000000000000000000000000000000000000000000000000000000000000000000000000000000000000000000000000000000000000000000000000000000000000000000000000000000000000000000000000000000000000000000000000000000000000000000000000000000000000000000000000000000000000000000000000000000000000000000000000000000000000000000000000000000000000000000000000000000000000000000000000000000000000000000000000000000000000000000000000000000000000000000000000000000000000000000000000000000000000000000000000000000000000000000000000000000000000000000000000000000000000000000000000000000000000000000000000000000000000000000000000000000000000000000000000000000000000000000000000000000000000000000000000000000000000000000000000000000000000000000000000000000000000000000000000000000000000000000000000000000000000000000000000000000000000000000000000000000000000000000000000000000000000000000000000000000000000000000000000000000000000000000000000000000000000000000000000000000000000000000000000000000000000000000000000000000000000000000000000000000000000000000000000000000000000000000000000000000000000000000000000000000000000000000000000000000000000000000000000000000000000000000000000000000000000000000000000000000000000000000000000000000000000000000000000000000000000000000000000000000000000000000000000000000000000000000000000000000000000000000000000000000000000000000000000000000000000000000000000000000000000000000000000000000000000000000000000000000000000000000000000000000000000000000000000000000000000000000000000000000000000000000000000000000000000000000000000000000000000000000000000000000000000000000000000000000000000000000000000000000000000000000000000000000000000000000000000000000000000000000000000000000000000000000000000000000000000000000000000000000000000000000000000000000000000000000000000000000000000000000000000000000000000000000000000000000000000000000000000000000000000000000000000000000000000000000000000000000000000000000000000000000000000000000000000000000000000000000000000000000000000000000000000000000000000000000000000000000000000000000000000000000000000000000000000000000000000000000000000000000000000000000000000000000000000000000000000000000000000000000000000000000000000000000000000000000000000000000000000000000000000000000000000000000000000000000000000000000000000000000000000000000000000000000000000000000000000000000000000000000000000000000000000000000000000000000000000000000000000000000000000000000000000000000000000000000000000000000000000000000000000000000000000000000000000000000000000000000000000000000000000000000000000000000000000000000000000000000000000000000000000000000000000000000000000000000000000000000000000000000000000000000000000000
#07352:0053001300330000
#0735b:0063001300000043
#01057:5352
#0105b:0053
#01052:52
#01157:5352
#0115b:0053
#01152:52
#02958:0013000000000000
#02955:0013000000000000
#04256:6264
#0425c:0052
#0425a:64
#0435a:64
#04357:62
#04353:00540000
#04359:0064
#0445c:62
#04452:00520000
#00057:12121212
#0025a:5400001400000000
#00256:00000054000053000000000000000000
#00252:16
#00352:6400001400000000
#00356:00000064000000000000000000000000
#00357:0000006300000000
#0045a:5400001400000000
#00456:00000054000053000000000000000000
#00552:6400001400000000
#00556:00000064000000000000000000000000
#00557:0000006300000000
#0185a:5400000000440044
#01852:0000540000380038
#03056:44
#03052:0000000000000054
#03058:00444400
#0305a:00000044
#03156:2454243400000000
#03152:0054003400000000
#0315a:00240000
#03252:6400000000000054
#03256:44340000
#0325a:00440000
#03357:0053000000000000
#03656:53
#03652:00530000
#03657:0053
#0365b:00000053
#0385b:0063
#03956:00000054
#04057:63
#0405b:00630000
#04056:0063
#04052:00000063
#04558:52
#0455c:00520000
#04658:52
#04652:5462
#04656:0054
#04752:54
#04757:52
#04759:00640000
#04753:0054
#04852:52
#0485c:00620000
#04952:00620000
#04956:62
#04954:0000000000340000
#04958:00000044
#0535a:54
#05356:54540000
#05352:00540000
#0605b:0000000000000063
#06052:6400340000000053
#06056:44440000
#06058:0024000000000000
#05856:44344434
#05852:0000000000000054
#05956:2454004400000000
#05952:0054003400000000
#05954:000000000000000000000000000000000000000000000000000000000000000000000000000000000000000000000000000000000000000000000000000000000000000000000000000000000000000000000000000000000000000000000000242400000000000000000000000000000000000000000000000000000000000000000000000000000000000000000000000000000000000000000000000000000000000000000000000000000000000000000000000000000000000000000000000000000000000000000000000000000000000000000000000000000000000000000000000000000000000000000000000000000000000000000000000000000000000000000000000000000000000000000000000000000000000000000000000000000000000000000000000000000000000000000000000000000000000000000000000000000000000000000000000000000000000000000000000000000000000000000000000000000000000000000000000000000000000000000000
#06155:0013000000000000
#06158:0013000000000000
#06256:34443444
#0625a:0000000000000064
#07052:63346334
#07056:0023000000230063
#0705b:0000530000000063
#07057:0000002300000000
#0705a:4444
#07157:0063001300000000
#07152:0063001300000000
#00752:64
#00757:0000000000000000002300005300000000000000000000000000000000000000
#00756:0000002300000000000000000000000000000000000000000000000000000000
#0075a:00000054000014000000000000000000
#0085a:54
#00856:0000000000000000002300006300000000000000000000000000000000000000
#00857:0000002300000000000000000000000000000000000000000000000000000000
#00852:00000064000014000000000000000000
#00952:64
#00957:0000000000000000002300005300000000000000000000000000000000000000
#00956:0000002300000000000000000000000000000000000000000000000000000000
#0095a:00000054000014000000000000000000
#0145c:62
#01457:0062
#01456:63
#01452:0063
#0155c:62
#01557:0062
#01556:63
#01552:0063
#06356:2464003400000000
#0635a:0064004400000000
#06358:000000000000000000000000000000000000000000000000000000000000000000000000000000000000000000000000000000000000000000000000000000000000000000000000000000000000000000000000000000000000000000000000242400000000000000000000000000000000000000000000000000000000000000000000000000000000000000000000000000000000000000000000000000000000000000000000000000000000000000000000000000000000000000000000000000000000000000000000000000000000000000000000000000000000000000000000000000000000000000000000000000000000000000000000000000000000000000000000000000000000000000000000000000000000000000000000000000000000000000000000000000000000000000000000000000000000000000000000000000000000000000000000000000000000000000000000000000000000000000000000000000000000000000000000000000000000000000000000
#0505a:54
#05052:0064
#05055:53
#05058:0053
#05452:64
#0545a:0054
#05458:53
#05455:0053
#02252:6400000000340034
#0225a:00640000
#02256:0000000000480048
#05152:14
#0515a:00140000
#05252:1414
#0525a:00140014
#0555a:14
#05552:00140000
#0565a:1414
#05652:00140014
#001320:0000000000000000000000000000000000000000000000001656565656565656
#001330:00000000000000000000000000000000000000000000000000000000000000000000000000000000000000000000000000540054005400540054005400540054
#002320:26
#0023a1:1400002400000000
#002361:00000034000000000000000000000000
#002360:0000001300000000
#002320:0000000000230000
#003320:1400002400000000
#003360:00000034000000000000000000000000
#003371:0000001300000000
#0033b1:0000000000230000
#0043a1:1400002400000000
#004361:00000034000000000000000000000000
#004360:0000001300000000
#004320:0000000000230000
#005320:1400002400000000
#005360:00000034000000000000000000000000
#005371:0000001300000000
#0053b1:0000000000230000
#0063a1:14000024000000000000000000000000
#006371:0000005300000000000000000000000000000000000000000000000000000000
#006320:00000014000024000000000000000000
#006360:0000000000000000005300000000000000000000000000000000000000000000
#006361:0000001300000000
#0063b1:0000000000230000
#007321:14000024000000000000000000000000
#007361:0000005300000000000000000000000000000000000000000000000000000000
#0073a0:00000014000024000000000000000000
#007370:0000000000000000005300000000000000000000000000000000000000000000
#007371:0000001300000000
#007321:0000000000230000
#0083a1:14000024000000000000000000000000
#008371:0000005300000000000000000000000000000000000000000000000000000000
#008320:00000014000024000000000000000000
#008360:0000000000000000005300000000000000000000000000000000000000000000
#008361:0000001300000000
#0083b1:0000000000230000
#009321:14000024000000000000000000000000
#009361:0000005300000000000000000000000000000000000000000000000000000000
#0093a0:00000014000024000000000000000000
#009370:0000000000000000005300000000000000000000000000000000000000000000
#009371:0000001300000000
#009321:0000000000230000
#010321:12
#010371:00220000
#010370:1300000000005333
#0103b0:0000533333000000
#011370:33000023
#0113b0:0000533333000000
#010371:0012
#010321:00000022
#011321:12
#011371:00220000
#011371:0012
#011321:00000022
#0123b1:13230000
#012371:0053000000000000
#012320:00132300
#012360:0000005300000000
#0123b0:0000000000000013
#013350:0023000000000000
#012321:0000000000000013
#013381:0023000000000000
#0143c1:12
#014371:00220000
#014360:1300000000005333
#014320:0000533333000000
#015360:33000023
#015320:0000533333000000
#014371:0012
#0143c1:00000022
#0153c1:12
#015371:00220000
#015371:0012
#0153c1:00000022
#016321:13230000
#016361:0053000000000000
#0163b0:00132300
#016370:0000005300000000
#016321:0013
#016351:0000000000230000
#016380:0000000000130000
#0163b0:00000023
#016351:00000013
#016321:0000000000000023
#0163b0:0000000000000013
#016370:00000000000000000000000000000053
#017370:0023000000000000
#017320:00130000
#017370:00000000005300002300000000000000
#017361:00130000
#0173b1:00000000005300002300000000000000
#0183a1:14
#018361:0054240000000000
#018320:00140000
#018360:0000005424000000
#0183a1:0000000014240000
#0183a1:0000000000001424
#019321:13
#019361:00240000
#0193b0:00130000
#019360:0024
#020320:13
#020360:00000023000000000000000000000000
#020380:0013
#020320:00000024
#020351:0013
#0203a1:00000024
#0213b1:13
#021371:00000023000000000000000000000000
#022321:14
#022361:0054240000000000
#0223a0:00140000
#022360:0000005424000000
#022321:0000000014240000
#022321:0000000000001424
#0233b1:13
#023361:00240000
#024361:14
#024321:0053230000000000
#024360:00140000
#0243b0:0000005323000000
#024371:0014
#024321:0000000000532300
#024350:00000014
#0243b0:0000000000000053
#0253b0:23
#025361:1400005424000000
#025321:0054340000000000
#025360:00140000
#0253a0:0000005424000000
#0263a0:1400000000000000005400000000005400000000000000000000000000000000
#026360:0000540000000054000000000000000000540000000000002400000000000000
#026380:00343400
#0263a0:0000000000000014
#027360:54540000
#0273a0:0054002400000000
#027361:0014002400000000
#027321:00540000
#0283a1:14
#028361:00240000
#028321:0000000000000013
#029381:0023000000000000
#0283b0:0000000000000013
#029350:0023000000000000
#030320:1400000000000000005400000000005400000000000000000000000000000000
#030360:0000540000000054000000000000000000540000000000002400000000000000
#030340:00343400
#030320:0000000000000014
#031360:54540000
#031320:0054002400000000
#031361:0014002400000000
#0313a1:00540000
#032321:14
#032361:00240000
#032321:0000000000000014
#033371:0033000000000000
#033321:0000002400000000
#0333a1:0014
#033351:0000000000240000
#033350:0014
#0333a0:0000000000240000
#033320:00000014
#033370:0000000000000024
#033371:00000014
#033321:0000000000000024
#034321:0013
#034351:00000000000000000053002300000000
#035371:00130000
#035321:0000002300000000
#035361:00000014
#0363a1:24
#036360:13
#036320:0023000000000000
#036320:00130000
#036360:0000002300000000
#036370:0013
#0363b0:0000000000230000
#0363b0:00000013
#036370:0000000000000023
#0383b0:0013
#038380:00000000000000000053002300000000
#039360:00130000
#0393b0:0000002300000000
#039360:00000014
#040320:24
#040371:13
#0403b1:0023000000000000
#0403b1:00130000
#040371:0000002300000000
#040361:0013
#040321:0000000000230000
#040321:00000013
#040361:0000000000000023
#0423a1:14000054
#042361:00543400
#0433a1:34
#043331:00340000
#043391:0034
#043321:00000024
#042360:12
#0423c0:00220000
#0423c0:0012
#042360:00000022
#043370:12000022
#0443c0:12
#044370:00220000
#044321:00120000
#044381:00003222
#045381:12
#045321:00220000
#0453c0:00120000
#045360:00003222
#046320:14000054
#046360:00543400
#047320:34
#047390:00340000
#047330:0034
#0473a0:00000024
#046381:12
#046321:00220000
#046321:0012
#046381:00000022
#047371:12000022
#048321:12
#048371:00220000
#0483c0:00120000
#048360:00003222
#049360:12
#0493c0:00220000
#049321:00120000
#049381:0022
#0503a1:14
#050321:00240000
#050350:13
#050380:00230000
#050320:0014
#0503a0:00000024
#050381:0013
#050351:00000023
#052361:13
#0523b1:0023000000000000
#052371:00130000
#052321:0000002300000000
#052361:0013
#0523b1:0000000000230000
#052371:00000013
#052321:0000000000000023
#0533a1:14
#053361:0054340000000000
#053321:0000005424000000
#053360:1400005424000000
#053320:0054340000000000
#054320:14
#0543a0:00240000
#054381:13
#054351:00230000
#0543a1:0014
#054321:00000024
#054350:0013
#054380:00000023
#056370:13
#056320:0023000000000000
#056360:00130000
#0563b0:0000002300000000
#056370:0013
#056320:0000000000230000
#056360:00000013
#0563b0:0000000000000023
#057360:0000000000000000000000000000000000000000000000001454545454545454
#057370:00000000000000000000000000000000000000000000000000000000000000000000000000000000000000000000000000540054005400540054005400540054
#058360:24
#058321:14
#058361:00540000240000000000000000000000
#0583a0:00140000
#058360:00000000005400002400000000000000
#058321:0014
#058361:00000000000000000054000024000000
#058321:0000000000000014
#059361:54
#059321:0054002400000000
#059341:000000000000000000000000000000000000000000000000000000000000000000000000000000000000000000000000000000000000000000000000000000000000000000000000000000000000000000000000000000000000000000000000005400000000000000000000000000000000000000000000000000000000000000000000000000000000000000000000000000000000000000000000000000000000000000000000000000000000000000000000000000000000000000000000000000000000000000000000000000000000000000000000000000000000000000000000000000000000000000000000000000000000000000000000000000000000000000000000000000000000000000000000000000000000000000000000000000000000000000000000000000000000000000000000000000000000000000000000000000000000000000000000000000000000000000000000000000000000000000000000000000000000000000000000000000000000000000000000
#059360:0014002400000000
#059340:00540000
#060320:14240000
#060380:0054000000000000
#0603b0:0000000000000013
#061350:0023000000000000
#060321:0000000000000013
#061381:0023000000000000
#0623a1:14
#062361:00540000240000000000000000000000
#062320:00140000
#062360:00000000005400002400000000000000
#0623a1:0014
#062361:00000000000000000054000024000000
#0623a1:0000000000000014
#063361:54
#0633a1:0054002400000000
#063381:000000000000000000000000000000000000000000000000000000000000000000000000000000000000000000000000000000000000000000000000000000000000000000000000000000000000000000000000000000000000000000000000005400000000000000000000000000000000000000000000000000000000000000000000000000000000000000000000000000000000000000000000000000000000000000000000000000000000000000000000000000000000000000000000000000000000000000000000000000000000000000000000000000000000000000000000000000000000000000000000000000000000000000000000000000000000000000000000000000000000000000000000000000000000000000000000000000000000000000000000000000000000000000000000000000000000000000000000000000000000000000000000000000000000000000000000000000000000000000000000000000000000000000000000000000000000000000000000
#063360:0014002400000000
#063380:00540000
#0643a0:14240000
#064360:0054000000000000
#064321:00142400
#064361:0000005400000000
#064321:0000000000000013
#065371:0023000000000000
#0653b0:0013000000000000
#065360:0000002300000000
#0663b0:13
#066370:0053000000000000
#0663a0:00240000
#066321:00132400
#066361:0000005300000000
#0663b0:0013
#066370:0000000000530000
#0663a0:00000024
#066320:0000000000000013
#066360:00000000000000000000000000000053
#067360:0033000000000000
#0673b0:00000053000023000000000000000000
#066371:0000000000000013
#0663b1:00000000000000000000000000000053
#0673b1:0033000000000000
#067361:00000053000023000000000000000000
#068361:1323000000000000
#068321:00130000
#068361:0023
#069321:13230000
#069361:0053000000000000
#069350:15250000
#069390:0055000000000000
#0693b0:00001323
#069370:0000000000530000
#069361:00001525
#069321:0000000000550000
#070321:13240000
#070361:0053000000000000
#0703b0:00130000
#070370:0000005300000000
#0703a0:0024
#070321:00001324
#070361:0000000000530000
#0703b1:0000000000000013
#070371:00000000000000000000000000000053
#071371:0033000000000000
#071321:00000053000023000000000000000000
#070360:0000000000000013
#070320:00000000000000000000000000000053
#071320:0033000000000000
#071370:00000053000023000000000000000000
#0723b0:13
#072370:0023000000000000
#072320:00130000
#072360:0000002300000000
#072370:0013
#0723b0:00000023
#072320:0000000000000013
#072370:000000000000000000000000000000000000000000000000000000000000000000000000000000000000000000000000000000000000000000000000000000000000000000000000000000000000000000000000000000000000000000000000000000000000000000000000000000000000000000000000000000000000000000000000000000000000000000000000000000000000000000000000000000000000000000000000000000000000000000000000000000000000000000000000000000000000000000000000000000000000000000000000000000000000000000000000000000000000000000000000000000000000000000000000000000000000000000000000000000000000000000000000000000000000000000000000000000000000000000000000000000000000000000000000000000000000000000000000000000000000000000000000000000000000000000000000000000000000000000000000000000000000000000000000000000000000000000000000000000000000000000000000000000000000000000000000000000000000000000000000000000000000000000000000000000000000000000000000000000000000000000000000000000000000000000000000000000000000000000000000000000000000000000000000000000000000000000000000000000000000000000000000000000000000000000000000000000000000000000000000000000000000000000000000000000000000000000000000000000000000000000000000000000000000000000000000000000000000000000000000000000000000000000000000000000000000000000000000000000000000000000000000000000000000000000000000000000000000000000000000000000000000000000000000000000000000000000000000000000000000000000000000000000000000000000000000000000000000000000000000000000000000000000000000000000000000000000000000000000000000000000000000000000000000000000000000000000000000000000000000000000000000000000000000000000000000000000000000000000000000000000000000000000000000000000000000000000000000000000000000000000000000000000000000000000000000000000000000000000000000000000000000000000000000000000000000000000000000000000000000000000000000000000000000000000000000000000000000000000000000000000000000000000000000000000000000000000000000000000000000000000000000000000000000000000000000000000000000000000000000000000000000000000000000000000000000000000000000000000000000000000000000000000000000000000000000000000000000000000000000000000000000000000000000000000000000000000000000000000000000000000000000000000000000000000000000000000000000000000000000000000000000000000000000000000000000000000000000000000000000000000000000000000000000000000000000000000000000000000000000000000000000000000000000000000000000000000000000000000000000000000000000000000000000000000000000000000000000000000000000000000000000000000000000000000000000000000000000000000000000000000000000000000000000000000000000000000000000000000000000000000000000000000000000000000000000000000000000000000000000000000000000000000000000000000000000000000000000000000000000000000000000000000000000000000000000000000000000000000000000000000000000000000000000000000000000000000000000000000000000000000000000000000000000000000000000000000000000000000000000000000000000000000000000000000000000000000000000000000000000000000000000000000000000000000000000000000000000000000000000000000000000000000000000000000000000000000000000000000000000000000000000000000000000000000000000000000000000000000000000000000000000000000000000000000000000000000000000000000000000000000000000000000000000000000000000000000000000000000000000000000000000000000000000000000000000000000000000000000000000000000000000000000000000000000000000000000000000000000000000000000000000000000000000000000000000000000000000000000000000000000000000000000000000000000000000000000000000000000000000000000000000000000000000000000000000000000000000000000000000000000000000000000000000000000000000000000000000000000000000000000000000000000000000000000000000000000000000000000000000000000000000000000000000000000000000000000000000000000000000000000000000000000000000000000000000000000000000000000000000000000000000000000000000000000000000000000000000000000000054
#073320:0033002300000000
#073370:000000000000000000000000000000000000000000000000000000000000000000000000000000000000000000000000000000000000000000000000000000000000000000000000000000000000000000000000000000000000000000000000000000000000000000000000000000000000000000000000000000000000000000000000000000000000000000000000000000000000000000000000000000000000000000000000000000000000000000000000000000000000000000000000000000000000000000000000000000000000000000000000000000000000000000000000000000000000000000000000000000000000000000000000000000000000000000000000000000000000000000000000000000000000000000000000000000000000000000000000000000000000000000000000000000000000000000000000000000000000000000000000000000000000000000000000000000000000000000000000000000000000000000000000000000000000000000000000000000000000000000000000000000000000000000000000000000000000000000000000000000000000000000000000000000000000000000000000000000000000000000000000000000000000000000000000000000000000000000000054000000000000000000000000000000000000000000000000000000000000000000000000000000000000000000000000000000000000000000000000000000000000000000000000000000000000000000000000000000000000000000000000000000000000000000000000000000000000000000000000000000000000000000000000000000000000000000000000000000000000000000000000000000000000000000000000000000000000000000000000000000000000000000000000000000000000000000000000000000000000000000000000000000000000000000000000000000000000000000000000000000000000000000000000000000000000000000000000000000000000000000000000000000000000000000000000000000000000000000000000000000000000000000000000000000000000000000000000000000000000000000000000000000000000000000000000000000000000000000000000000000000000000000000000000000000000000000000000000000000000000000000000000000000000000000000000000000000000000000000000000000000000000000000000000000000000000000000000000000000000000000000000000000000000000000000000000000000000000000000000000000000000000000000000000000000000000000000000000000000000000000000000000000000000000000000000000000000000000000000000000000000000000000000000000000000000000000000000000000000000000000000000000000000000000000000000000000000000000000000000000000000000000000000000000000000000000000000000000000000000000000000000000000000000000000000000000000000000000000000000000000000000000000000000000000000000000000000000000000000000000000000000000000000000000000000000000000000000000000000000000000000000000000000000000000000000000000000000000000000000000000000000000000000000000000000000000000000000000000000000000000000000000000000000000000000000000000000000000000000000000000000000000000000000000000000000000000000000000000000000000000000000000000000000000000000000000000000000000000000000000000000000000000000000000000000000000000000000000000000000000000000000000000000000000000000000000000000000000000000000000000000000000000000000000000000000000000000000000000000000000000000000000000000000000000000000000000000000000000000000000000000000000000000000000000000000000000000000000000000000000000000000000000000000000000000000000000000000000000000000000000000000000000000000000000000000000000000000000000000000000000000000000000000000000000000000000000000000000000000000000000000000000000000000000000000000000000000000000000000000000000000000000000000000000000000000000000000000000000000000000000000000000000000000000000000000000000000000000000000000000000000000000000000000000000000000000000000000000000000000000000000000000000000000000000000000000000000000000000000000000000000000000000000000000000000000000000000000000000000000000000000000000000000000000000000000000000000000000000000000000000000000000000000000000000000000000000000000000000000000000000000000000000000000000000000000000000000000000000000000000000000000000000000000000000000000000000000000000000000000000000000000000000000000000000000000000000000000000000000000
#0723b1:0000000000000013
#073351:54540000
#0733b1:0033002300000000
#029980:0000001300000000
#0299b0:00000000000000000000000000000000000000000000000000000023000000000000000000000000000000000000000000000000000000000000000000000000
#029921:0000001300000000
#029951:00000000000000000000000000000000000000000000000000000023000000000000000000000000000000000000000000000000000000000000000000000000
#029951:0000000000130000
#029921:00000000000000000000000000000000000000000000000000000000000000000000000000000000000000230000000000000000000000000000000000000000
#0299b0:0000000000130000
#029980:00000000000000000000000000000000000000000000000000000000000000000000000000000000000000230000000000000000000000000000000000000000
#061950:0000001300000000
#061920:00000000000000000000000000000000000000000000000000000023000000000000000000000000000000000000000000000000000000000000000000000000
#0619b1:0000001300000000
#061981:00000000000000000000000000000000000000000000000000000023000000000000000000000000000000000000000000000000000000000000000000000000
#061981:0000000000130000
#0619b1:00000000000000000000000000000000000000000000000000000000000000000000000000000000000000230000000000000000000000000000000000000000
#061920:0000000000130000
#061950:00000000000000000000000000000000000000000000000000000000000000000000000000000000000000230000000000000000000000000000000000000000
