This file was generated by Ched 2.7.0.0.
#TITLE ""
#ARTIST ""
#DESIGNER ""
#DIFFICULTY 0
#PLAYLEVEL
#SONGID ""
#WAVE ""
#WAVEOFFSET 0
#JACKET ""
#REQUEST "ticks_per_beat 480"
#00002: 4
#BPM01: 172
#00008: 01
#TIL00: ""
#VOLUME: ""
#HISPEED 00
#MEASUREHS 00
#0101a:14
#01014:0014
#01010:41
#0121a:1414
#01118:14
#01112:0014
#0131a:14
#01412:14
#01418:0014
#01612:1414
#01514:14
#0151a:0014
#01818:1414
#01814:00140014
#01810:41
#02214:1414
#02218:00140014
#02614:00140014
#0261a:2414
#02610:41
#02718:1414
#02712:00140000
#02818:00140014
#02812:2414
#02914:1414
#0291a:00140000
#03012:00140014
#03018:2414
#0311a:1414
#03114:00140000
#0321a:00140014
#03214:2414
#03312:1414
#03318:00140000
#0361a:14
#03614:00140000
#03618:0014
#03612:00000014
#0371a:14
#03714:00140000
#03718:0024
#04012:14
#04018:00140000
#04014:0014
#0401a:00000014
#04112:14
#04118:00140000
#04114:0024
#05012:1414
#0501a:1414
#05118:14141400
#05212:14
#05218:00140000
#05214:0014
#0521a:00000014
#05312:14141400
#04818:1414
#04714:1414
#0461a:1414
#0461f:11
#04412:1414
#04318:1414
#04214:0014
#04210:41
#0541a:1414
#05412:1414
#05514:14141400
#0561a:14
#05614:00140000
#05618:0014
#05612:00000014
#0571a:14141400
#05818:00140000
#05814:0014
#0581a:00000014
#05812:24
#0581f:21
#05912:1414
#05918:00140000
#05910:41
#06014:00140000
#06018:0014
#06012:00000014
#0601a:24
#0611a:1414
#06114:00140000
#0621a:00140000
#06212:0014
#06218:00000014
#06214:24
#06314:14
#0631a:00140000
#06312:0014
#06818:00140000
#06812:0014
#0681a:00000014
#06814:24
#01712:14
#06412:00140000
#0641a:0014
#06414:00000014
#06418:24
#06518:14
#06512:00140000
#0651a:0014
#06514:00000014
#06614:00140000
#06618:0014
#06612:00000014
#0661a:24
#06914:14
#0721a:00140000
#07214:0014
#07218:00000014
#07212:24
#07012:00140000
#0701a:0014
#07014:00000014
#07018:24
#07312:14
#00114:24
#03410:41
#0135a:14
#0615a:0014
#06952:0014
#06954:54
#03758:0014
#00154:54
#01752:54
#0655a:0014
#06554:00000014
#07352:54
#07354:0014
#001340:14
#001320:00000024
#002380:14
#0023a0:0034
#003380:34
#0033a0:0024
#004340:14
#004320:0034
#005340:34
#005320:0024
#0063a0:14
#006380:0034
#0073a0:34
#007380:0024
#008320:14
#008340:0034
#009320:34
#009340:0024
#017320:14
#017340:0024
#0193a0:1424
#020340:14
#020320:0024
#021380:14
#0213a0:0024
#023320:1424
#024380:14
#0243a0:0024
#025340:14
#025320:0024
#0343a0:14
#034380:0024
#035320:14
#035340:0024
#038320:14
#038340:0024
#0393a0:14
#039380:0024
#041340:0000000014343434
#042340:24
#045320:1424
#049380:1424
#0673a0:1424
#067380:00340000
#069340:14
#069320:0024
#071380:1424
#0713a0:00340000
#073320:14
#073340:0024
#0743a0:14
#074380:0034
#0753a0:34343424
