This file was generated by Ched 2.7.0.0.
#TITLE ""
#ARTIST ""
#DESIGNER ""
#DIFFICULTY 0
#PLAYLEVEL
#SONGID ""
#WAVE ""
#WAVEOFFSET 0
#JACKET ""
#REQUEST "ticks_per_beat 480"
#00002: 4
#BPM01: 185
#00008: 01
#TIL00: ""
#VOLUME: ""
#HISPEED 00
#MEASUREHS 00
#00218:14
#00318:14
#00414:14
#00514:14
#01518:14
#01612:14
#0171a:14
#01814:14
#01914:14
#02018:14
#02118:14
#03018:0016
#03012:26
#03010:41
#03112:16
#03118:0016
#03212:16
#03218:0016
#03418:16
#03412:0016
#03518:16
#03512:0016
#03618:16
#03612:0016
#03812:1616
#03918:1616
#04012:16
#04018:0016
#04218:1616
#04312:1616
#04418:16
#04412:0016
#04612:14
#0471a:14
#05514:14
#05518:0014
#05212:14
#05316:14
#06412:14
#0641f:11
#06512:14
#06618:14
#06718:14
#06814:14
#06914:14
#0701a:14
#0711a:14
#07213:14
#07219:24
#07412:0016
#07418:26
#0741f:21
#07612:1616
#07718:1616
#07812:16
#07818:0016
#08018:1616
#08112:1616
#08218:16
#08212:0016
#08318:1616
#08312:00160000
#08412:1616
#08518:1616
#08612:16
#08618:0016
#08712:1616
#08718:00160000
#0881a:14
#08810:41
#08912:14
#09018:1414
#09114:1414
#0921a:1414
#09312:1414
#0541a:24
#09418:26
#00610:41
#07510:41
#04810:41
#05610:41
#0063a0:14
#0073a0:24
#008320:14
#009320:24
#010380:14
#011380:24
#012340:1400000000000034
#013340:0000003400000000
#014340:24
#022320:14
#023320:24
#0243a0:14
#0253a0:24
#026340:14
#027320:24
#028380:14
#0293a0:24
#033320:1626
#037380:1626
#041320:1626
#045380:1626
#048340:14
#049340:24
#050380:14
#051380:24
#056320:14
#059340:24
#0603a0:14
#063380:24
#075380:16362600
#079320:16362600
