This file was generated by Ched 2.7.0.0.
#TITLE ""
#ARTIST ""
#DESIGNER ""
#DIFFICULTY 0
#PLAYLEVEL
#SONGID ""
#WAVE ""
#WAVEOFFSET 0
#JACKET ""
#REQUEST "ticks_per_beat 480"
#00002: 4
#BPM01: 185
#00008: 01
#TIL00: ""
#VOLUME: ""
#HISPEED 00
#MEASUREHS 00
#00019:230000000000000000000000000000000000000000130000000000000000000000000000000000000000000000130000000000000000000000000000000000000000000000000000000000000000000000130000000000000000000000000000000000000000000000000000000000000000000000130000000000000000000000000000000000000000000000001300000000000000130000000000000013000000000000001300000000000000130000000000000013000000000000001300
#00018:000000000000160000000000160000000000000000160000000000000000160000000000150015001500150015001500
#00014:000000000000000000000000000000000000000000000000000000000000000000000000000000000000000000130000000000000000000000000000000000000000000000130000000000000000000000000000000000000000000000000000000000000000000000130000000000000000000000000000000000000000000000130000000000000000000000001300000000000000130000000000000013000000000000001300000000000000130000000000000013000000000000001300
#00012:00000000160016000016001600000000
#00013:000000000000000000000000000000000000151515151515
#00113:00000000140000000054000000000000
#00112:0014
#00119:000000240000000000006400
#0011a:00002424
#00114:0000000000540000
#00115:00000000000000000000005400000000
#00116:00000054
#00118:000000000000000000000064
#00212:24141414
#00217:64141414
#0021b:0000000000000013
#00216:00000000000000000000000000000013
#0031b:1300001313000000
#00312:0013130000001300
#00317:00000013000000000000000000000000
#00316:00000000000000130000000000000000
#0041a:14141414
#00415:24141414
#00412:0000000000000013
#00417:00000000000000000000000000000013
#00512:1300001515000013
#0051a:0014140000000000
#00515:00000014000000000000000000000000
#00516:00000000000000150000000000000000
#00518:0000000000161600
#00514:00000000000000000000001600000000
#00616:18
#00612:23130000
#00610:41
#00714:13130000
#00816:13130000
#00916:13
#00915:0013000000000000
#00918:00130013
#00917:0000001300000000
#00912:0013
#01012:18
#0101b:00130000
#01119:13130000
#01217:13130000
#01212:0000000000000023
#0131b:0000002300131313
#01416:2400000063130013
#0141a:00630000000000001400000014000000
#01419:00006300000000000000000000000013
#0141b:23
#01412:00230000
#01418:00000063000000000000000000000000
#01417:00630000
#01413:00000000006300000000000000000000
#01414:0000006300000000
#01415:00000000000000630000000000000000
#01512:14
#0151a:0014000000000000
#01514:0000000000000014
#01615:00001300000000630000000000000063
#01618:24000013000000000000006300000000
#01612:00230023
#0161b:0023
#01613:00000000006300000000000000630000
#01614:0000006300000063
#01616:0063
#0161a:00000000000000000063000000000000
#01619:0000000000630000
#01617:00000063
#0171a:14
#01712:0014000000000000
#01718:0000000000000014
#01716:63
#01818:00001300000000630000130000000063
#01815:00000013000000000000001300000000
#01812:0013
#0181b:00230023
#01814:24
#0181a:00000000006300000000000000630000
#01819:0000006300000063
#01817:0063
#01912:15
#01919:0015000000000000
#01914:0000000000000014
#01917:63
#0201b:2313
#02015:00000000000000630000130000000000
#02018:00000063000000000000000013001400
#02012:00230000
#02014:0000006300000024
#0201a:00630000000000000000000000000000
#02019:0063000000000000
#02017:00630000
#02013:00000000006300000000000000000000
#02016:0063
#02118:00130000
#02115:0000001300000000
#0211b:0013000000000000
#02112:0000000013000014
#0211a:0000000000140000
#02116:00000014
#02216:1800000000530000
#02212:2400001300000000
#02214:0000000053000053
#02215:00000053
#02312:00130000
#02316:0013
#02315:0000000000130000
#02314:00000013
#02313:5300000000000013
#0241b:0000001300000000
#02412:18
#02419:0000000053000053
#02417:0000000000530000
#02418:00000053
#0251b:00130000
#02517:0013
#02518:0000000000130000
#02519:00000013
#0251a:5300000000000013
#03012:16
#03018:26
#03010:41
#03116:0000000000000014
#03216:0014001400140014
#0321a:0000000000000024
#0341a:14
#03417:0014000000000000
#03412:2414
#03415:0000000000140000
#0351a:1414
#03516:0014001400140014
#03512:00140000
#03616:0014001400140014
#0361a:0000000000240000
#03612:0000000000000024
#03716:0013001300000000
#03717:00130000
#03812:00141400
#03817:0000001400000000
#0381a:24000014
#03815:0000000000000014
#0391a:1414
#03918:0000140000000014
#03914:0014
#03912:00140014
#04014:1414
#0401a:0014000000240000
#04012:0000140000000014
#04018:0000001400000000
#04118:0016000000000000
#04112:0000160000000014
#04117:0000001600000000
#04113:0016
#0411a:00000014
#04215:1616
#04212:00140000
#0421a:0000001400000000
#04218:00000014
#04214:0000000000000014
#04318:1600000000000014
#04316:00160000
#04312:00130016
#04314:0016
#0431b:0013
#03317:0014000000000000
#03312:00140000000000000000000000000000
#03318:00140000
#03315:0000001400000000
#0331a:0000001400000000
#03316:0024
#04412:1400000014000016
#0441a:0014000000140000
#04414:00140000
#04418:0000001400000016
#04619:230000000000000000000000000000000000000000130000000000000000000000000000000000000000000000130000000000000000000000000000000000000000000000000000000000000000000000130000000000000000000000000000000000000000000000000000000000000000000000130000000000000000000000000000000000000000000000001300000000000000130000000000000013000000000000001300000000000000130000000000000013000000000000001300
#04618:000000000000160000000000160000000000000000160000000000000000160000000000150015001500150015001500
#04614:000000000000000000000000000000000000000000000000000000000000000000000000000000000000000000130000000000000000000000000000000000000000000000130000000000000000000000000000000000000000000000000000000000000000000000130000000000000000000000000000000000000000000000130000000000000000000000001300000000000000130000000000000013000000000000001300000000000000130000000000000013000000000000001300
#04612:00000000160016000016001600000000
#04613:000000000000000000000000000000000000151515151515
#04712:00151300
#04718:00000000000000000013000000000000
#04715:0000000000130000
#04716:000000000000000000000000000000000000000000000000000000000000000000000000240000140000001400000014
#04714:000000000000000000001818
#0471b:00000000000000000000001300000000
#04719:00250000
#0481a:0013
#04812:0016
#04810:41
#04919:15
#04912:0014
#05019:13
#05015:0012
#05119:12
#05112:0014
#05117:0012
#05516:0014001400000000
#05515:0000000000160016
#05518:2626
#05512:00260026
#05217:1213
#05316:14
#05317:0015
#05612:14
#05616:0014
#0561a:24
#05610:41
#05712:1414
#05716:00140000
#05816:14
#05812:0014
#05916:1414
#05912:00140000
#06016:00140000
#06012:1414
#06116:1414
#06112:00140000
#06212:1414
#06216:0000140000000014
#06314:14
#06312:0014000000001400
#0641a:14001414
#06416:2400140014140000
#06412:00140014
#0641f:11
#06512:14001414
#06516:14141414
#0651a:0000140000140000
#06616:0000140014140000
#0661a:00140014
#06612:24001414
#0671a:14001414
#06716:14141414
#06712:0000140000140000
#06816:24132413
#06814:0000001300000000
#06812:0013
#0681a:0000000000000014
#06917:00230013
#06919:0000000000000013
#06916:2424
#0701b:1313131300000000
#07015:24140000
#07012:0000000013131313
#07017:00002414
#07115:14000000000000530000000000000000
#07112:00000000230000000014001400000000
#07114:00000000000053000000000000140014
#0711b:23
#0711a:00530000000000002400240000000000
#07118:00000053000000000000000024002400
#07119:0053000000000000
#07117:00530000
#07113:00000000005300000000000000000000
#07116:0053
#07716:0000000000000014
#07816:0014000000000000
#07815:0000001600000000
#07812:0000000000230000
#0781a:0000000000000024
#0801a:0000140000000014
#08012:0000001400001400
#08018:24
#08116:00000014
#08215:1414
#08212:00140000
#0831a:0014000000000000
#08318:0000001400000000
#0841a:0000140000000014
#08412:0000001400001400
#0851a:0000000000000014
#08516:00000014
#08617:0014000000000000
#0861a:0000001400000000
#0871a:0000001400000014
#08712:00000014
#08819:230000000000000000000000000000000000000000130000000000000000000000000000000000000000000000130000000000000000000000000000000000000000000000000000000000000000000000130000000000000000000000000000000000000000000000000000000000000000000000130000000000000000000000000000000000000000000000001300000000000000130000000000000013000000000000001300000000000000130000000000000013000000000000001300
#08818:000000000000160000000000160000000000000000160000000000000000160000000000150015001500150015001500
#08814:000000000000000000000000000000000000000000000000000000000000000000000000000000000000000000130000000000000000000000000000000000000000000000130000000000000000000000000000000000000000000000000000000000000000000000130000000000000000000000000000000000000000000000130000000000000000000000001300000000000000130000000000000013000000000000001300000000000000130000000000000013000000000000001300
#08812:00000000160016000016001600000000
#08813:000000000000000000000000000000000000151515151515
#08810:41
#08913:00000000140000000054000000000000
#08912:0014
#08919:000000240000000000006400
#0891a:00002424
#08914:0000000000540000
#08915:00000000000000000000005400000000
#08916:00000054
#08918:000000000000000000000064
#09017:6414140000001400
#0901b:0000000000000013
#09015:00000000000000000000000000000013
#09012:24141414
#0901a:0000000000140000
#09018:00000000000000130000000000000000
#09014:0000001300000000
#09117:1424
#0911b:0000001300000000
#09115:00000000140000130000000000000000
#09112:0013000000001400
#09118:00000013000000000000000000000000
#09312:0000001300000026
#0931b:00000000000000130000000000000000
#09315:1413
#0931a:0014000000000000
#09314:00000014000000000000140000000000
#09316:00150000
#09318:00000000000000000013001400250026
#09313:00000025
#09215:24001400140000130000000014000000
#0921a:14141414
#09212:0000000000140013
#09218:00000000000000000000000000000013
#09219:0000001300000000
#02616:2800000000630000
#02612:2300002300000000
#02614:0000000063000063
#02615:00000063
#02712:00230000
#02716:0023
#02715:0000000000230000
#02714:00000023
#02713:6300000000000023
#02812:2300000000230000
#0281b:0023000023000000
#02815:0000242400000000
#02817:0000000000002424
#0291a:2464
#02912:0054
#0451a:0024000000000000
#04516:00240000
#04512:0000002400000023
#0451b:0023
#04518:0000000000230000
#04515:00000023
#05418:26
#07219:25
#07412:2600000000000024
#0741f:21
#09412:2c
#0761b:23
#07510:41
#00059:000000000000000000000000000000000000000000230000000000000000000000000000000000000000000000230000000000000000000000000000000000000000000000000000000000000000000000230000000000000000000000000000000000000000000000000000000000000000000000230000000000000000000000000000000000000000000000002300000000000000230000000000000023000000000000002300000000000000230000000000000023000000000000002300
#00058:000000000000660000000000660000000000000000660000000000000000660000000000650065006500650065006500
#00054:000000000000000000000000000000000000000000000000000000000000000000000000000000000000000000230000000000000000000000000000000000000000000000230000000000000000000000000000000000000000000000000000000000000000000000230000000000000000000000000000000000000000000000230000000000000000000000002300000000000000230000000000000023000000000000002300000000000000230000000000000023000000000000002300
#00052:00000000560056000056005600000000
#00053:000000000000000000000000000000000000555555555555
#00158:15
#00153:15140000
#00159:00140000
#00352:00000013
#00357:00000013
#0035b:0063
#00656:68
#00652:13
#00958:00000063
#00952:0063
#01052:58
#0105b:13
#01252:0000000000000013
#01456:34
#0145a:00001414
#0135b:0000001300000000
#01552:34
#0155a:0044000000000000
#01555:0000000000130000
#01554:0000000000000014
#01558:00000013
#01752:0034000000000000
#0175a:44
#01758:0000000000130014
#01755:00000013
#01952:35
#01959:0045000000000000
#01954:0000000000140014
#01958:00000014
#02054:0000000000000064
#02058:0000000000000014
#02256:68
#02252:34
#02353:13
#0245b:13
#02452:58
#0255a:13
#02656:68
#02652:13
#02753:13
#03058:16
#03052:16
#03256:0000000000640064
#0325a:0000000000000014
#0345a:64
#03457:0024000000000000
#03452:1454
#03455:0000000000240000
#0355a:6464
#03556:0024002400240000
#03552:00540000
#0365a:0000000000140000
#03652:0000000000000014
#03656:0000000000640054
#03756:0053005300000000
#03757:00630000
#0385a:44000014
#03852:00141400
#03857:0000001400000000
#03855:0000000000000014
#0395a:14
#03958:0000140000000014
#03954:0014
#03952:00000014
#04054:1414
#0405a:0014000000640000
#04052:0000140000000014
#04058:0000001400000000
#04056:0000000000000014
#04158:0046000000000000
#04152:0000360000000014
#04157:0000004600000000
#04153:0036
#0415a:00000014
#04255:4636
#04252:00140000
#0425a:0000001400000000
#04258:00000014
#04254:0000000000000014
#04358:4600000000000014
#04356:00460000
#04354:0036
#04352:00000036
#03352:00240000000000000000000000000000
#03358:00640000
#0335a:0000002400000000
#03356:0014
#04452:1400000034000016
#0445a:0014000000440000
#04454:00140000
#04458:0000001400000016
#04659:000000000000000000000000000000000000000000230000000000000000000000000000000000000000000000230000000000000000000000000000000000000000000000000000000000000000000000230000000000000000000000000000000000000000000000000000000000000000000000230000000000000000000000000000000000000000000000002300000000000000230000000000000023000000000000002300000000000000230000000000000023000000000000002300
#04658:000000000000660000000000660000000000000000660000000000000000660000000000650065006500650065006500
#04654:000000000000000000000000000000000000000000000000000000000000000000000000000000000000000000230000000000000000000000000000000000000000000000230000000000000000000000000000000000000000000000000000000000000000000000230000000000000000000000000000000000000000000000230000000000000000000000002300000000000000230000000000000023000000000000002300000000000000230000000000000023000000000000002300
#04652:00000000560056000056005600000000
#04653:000000000000000000000000000000000000555555555555
#04758:15
#04753:15
#04752:00150000
#04759:00150000
#04756:000000000000000000000000000000000000000000000000000000000000000000000000000000240000002400000024
#04754:000000000000000000006868
#04854:18
#04852:0066
#04959:65
#04952:0064
#05059:63
#05055:0062
#05159:52
#05157:0022
#00252:34
#05257:2223
#05259:42
#05254:0033
#05356:24
#05357:0025
#0535a:44
#05352:0035
#05652:64
#05656:0064
#05752:6464
#05756:00240000
#05856:64
#05852:0064
#05956:6464
#05952:00240000
#06056:00240000
#06052:6464
#06156:6464
#06152:00240000
#06252:6464
#06256:0000240000000024
#06354:64
#06352:0024000000001400
#06356:0014
#06456:1400640000240000
#0645a:64006464
#06556:64006454
#0655a:0000640000240000
#0665a:14
#06656:0000540000240000
#06652:64005454
#06756:54005464
#06752:0000540000240000
#06852:14
#06856:6464
#06957:00630000
#06956:6464
#07452:1600000000000014
#07852:0000000000130000
#0785a:0000000000000014
#08058:14
#0805a:0000140000000014
#08052:0000001400001400
#08255:1414
#08252:00140000
#08256:0000000000000014
#0835a:0014000000000000
#08358:0000001400000000
#08356:00000014
#0845a:0000140000000014
#08452:0000001400001400
#08456:14
#07359:00000045
#05458:46
#08657:0014000000000000
#0865a:0000001400000014
#08652:0000000000140000
#0855a:0000000014000014
#08552:00140014
#0875a:0000001400000014
#08752:00000014
#08859:000000000000000000000000000000000000000000230000000000000000000000000000000000000000000000230000000000000000000000000000000000000000000000000000000000000000000000230000000000000000000000000000000000000000000000000000000000000000000000230000000000000000000000000000000000000000000000002300000000000000230000000000000023000000000000002300000000000000230000000000000023000000000000002300
#08858:000000000000660000000000660000000000000000660000000000000000660000000000650065006500650065006500
#08854:000000000000000000000000000000000000000000000000000000000000000000000000000000000000000000230000000000000000000000000000000000000000000000230000000000000000000000000000000000000000000000000000000000000000000000230000000000000000000000000000000000000000000000230000000000000000000000002300000000000000230000000000000023000000000000002300000000000000230000000000000023000000000000002300
#08852:00000000560056000056005600000000
#08853:000000000000000000000000000000000000555555555555
#08953:15140000
#08958:15
#08959:00140000
#08152:00140014
#0815a:0014
#09152:00000014
#0915a:00000014
#09157:0064
#09052:34
#09452:3c
#0765b:13
#0045a:44
#0925a:44
#01658:14
#01854:14
#05558:4646
#05552:00360036
#000340:130000000000000000000000000000000000000000000000000000000000000000000000000000000000000000530000000000530000000000000000000000000000000000530000000000530000000000000000000000000000000000000000000000000000000000530000000000530000000000000000000000000000000000530000000000530000000000005300000053000000530000005300000053000000530000005300000053000000530000005300000053000000530000005300
#000320:00000000360036000036003600000000
#000330:000000000000000000000000000000000000353535353535
#001330:25
#000391:130000000000000000000000000000000000000000530000000000530000000000000000000000000000000000530000000000530000000000000000000000000000000000000000000000000000000000530000000000530000000000000000000000000000000000000000000000000000000000530000000000530000000000000000000000000000000000005300000053000000530000005300000053000000530000005300000053000000530000005300000053000000530000005300
#000381:000000000000360000000000360000000000000000360000000000000000360000000000350035003500350035003500
#001381:25
#0033b1:0013
#003371:00000023
#006361:18
#0093b1:23
#009321:0013
#009351:00000023
#009380:00000013
#0103b0:23
#010321:18
#012321:0000000000000023
#012360:0000000000000014
#0123b0:00000000000000000000000000000053
#0133b0:0000002300000000
#013321:0000001300000000
#013361:00000000000000540000000000000000
#014361:24
#015351:0000130000230000
#015380:0000001300002300
#017380:0000130000230000
#017351:0000001300002300
#019341:0000140000240000
#019380:0000001400002400
#020340:0000000000000014
#021320:0023000000000000
#022360:18
#0243b0:23
#024321:18
#026321:23
#026360:18
#0283b0:23
#0293a0:1424
#029321:1424
#0303a1:0000142400000000
#030350:0000001424000000
#0303a1:00001424
#030320:0000000000001424
#030371:0000000000000014
#031371:24
#031320:14240000
#031381:00142400
#031340:00001424
#0313a1:00000014
#0323a1:24
#032320:14240000
#0323a1:00142400
#032320:0000000014240000
#032361:0000000000140000
#0323a1:0000000000000024
#032360:0000000000000014
#033320:00540000000000000000000000000000
#033340:00240000
#033381:00140000
#0333a1:0000005400000000
#033361:0024
#033320:00001424
#033361:0000000000001424
#033320:0000000000000014
#034320:24
#0343a1:14240000
#034371:0054000000000000
#034360:0000142400000000
#0343a1:0000001424000000
#034320:00001424
#034350:0000000000540000
#034361:0000000000001424
#034320:0000000000000014
#035320:24
#0353a1:14240000
#035361:0054000000000000
#035320:00142400
#035360:0000005400000000
#0353a1:00001424
#035361:0000000000540000
#035320:00000014
#036320:24
#0363a1:14240000
#036320:00142400
#0363a1:0000000014240000
#036360:0000000000140000
#036320:0000000000000024
#036361:0000000000000014
#0373a1:0024000000000000
#037360:0013000000000000
#037320:00230000
#037371:00130000
#0373b1:0000002300000000
#037360:0000001300000000
#037320:0023
#037381:0000000013230000
#037350:0000000000132300
#037381:0000000000001323
#037350:0000000000000013
#038350:23
#0403a0:0000000000140000
#040360:0000000000000024
#046390:130000000000000000000000000000000000000000530000000000530000000000000000000000000000000000530000000000530000000000000000000000000000000000000000000000000000000000530000000000530000000000000000000000000000000000000000000000000000000000530000000000530000000000000000000000000000000000005300000053000000530000005300000053000000530000005300000053000000530000005300000053000000530000005300
#046380:000000000000360000000000360000000000000000360000000000000000360000000000350035003500350035003500
#047380:25
#046341:130000000000000000000000000000000000000000000000000000000000000000000000000000000000000000530000000000530000000000000000000000000000000000530000000000530000000000000000000000000000000000000000000000000000000000530000000000530000000000000000000000000000000000530000000000530000000000005300000053000000530000005300000053000000530000005300000053000000530000005300000053000000530000005300
#046321:00000000360036000036003600000000
#046331:000000000000000000000000000000000000353535353535
#047331:25
#047361:000000000000000000000000000000000000000000000000000000000000000000000000140000540054005400540054
#047341:000000000000000000003838
#048341:28
#048321:0016
#049341:25
#049390:15
#049360:0024
#049321:0014
#050361:23
#050390:13
#050370:0022
#050351:0012
#051371:22
#051390:12
#051370:0032
#052390:22
#052371:12
#052341:0023
#052370:0013
#0533a0:24
#053361:14
#053321:0025
#053370:0015
#054380:26
#054321:1600002c
#056321:14
#056361:0054
#057321:5454
#057361:00540000
#058361:54
#058321:0054
#059361:5454
#059321:00540000
#060321:5454
#060361:00540000
#061361:5454
#061321:00540000
#062321:5454
#062361:0000540000000054
#063341:54
#063321:0054000000000000
#063361:0024
#0563a0:14
#0633a0:34343434
#0643a0:34005454
#064360:0000540000540000
#065360:54005454
#0653a0:0000540000540000
#0663a0:24
#066321:14005454
#066361:0000540000540000
#067361:54005454
#067321:0000540000540000
#068321:24
#068360:14
#0683a0:00240000
#068360:0014
#0683a0:00000024
#069360:14
#069320:00240000
#069371:00130000
#0693b1:0023
#069360:0014
#069320:00000024
#072390:15
#073390:00000025
#072321:15
#073321:35000000000000000000000000000000350000000000000000000000000000003500000000000000000000000000000035545456555556555600560055005500
#073331:0000000000000000000000000000000000000000000000000000000000000000000000000000000000000000000000000000000000000000000000000000000000000000000000000000000000000000000000000000000000000000000000000055000000000056005500560000000000000000000056000000000000000000
#073341:0000000000000000000000000000000000000000000000000000000000000000000000000000000000000000000000000000000000000000000000000000000000000000000000000000000000000000000000000000000000000000000000000000005400560000000000000055005600005500000000000000560000005700
#074321:26
#074390:155555550000000000000000000000000000000000555555250000000000000000000000000000000000000000000000000000000000000000000000000000000000000000000000000000000000000000000000000000000000000000000000
#074380:005500550055000055005500550055000000000000000000000000000000000000005500550055005500005500550055000000000000000000000000000000000000000000000000000000000000000000000000000000000000000000000000000000000000000000000000000000000000000000000000000000000000000000000000000000000000000000000000000000000000000000000000000000000000000000000000000000000000000000000000000000000000000000000000
#074370:000000000000005500550055005500005500550055005500000055005500550055000055005500550055000000000000000000000000000000000000000000000000000000000000000000000000000000000000000000000000000000000000000000000000000000000000000000000000000000000000000000000000000000000000000000000000000000000000000000000000000000000000000000000000000000000000000000000000000000000000000000000000000000000000
#074360:000000000000000000000000000000550055005500550055005500550055005500550000000000000000000000000000000000000000000000000000000000000000000000000000000000000000000000000000000000000000000000000000000000000000000000000000000000000000000000000000000000000000000000000000000000000000000000000000000000000000000000000000000000000000000000000000000000000000000000000000000000000000000000000000
#074350:0037000000000000
#074321:000000000000000000000000000000000000000000000000155555550000000000000000000000000000000000555555250000000000000000000000000000000000000000000000000000000000000000000000000000000000000000000000
#074331:000000000000000000000000000000000000000000000000000000000000000000000000000000000000000000000000005500550055000055005500550055000000000000000000000000000000000000005500550055005500005500550055000000000000000000000000000000000000000000000000000000000000000000000000000000000000000000000000000000000000000000000000000000000000000000000000000000000000000000000000000000000000000000000000
#074341:000000000000000000000000000000000000000000000000000000000000000000000000000000000000000000000000000000000000005500550055005500005500550055005500370055005500550055000055005500550055000000000000000000000000000000000000000000000000000000000000000000000000000000000000000000000000000000000000000000000000000000000000000000000000000000000000000000000000000000000000000000000000000000000000
#074351:000000000000000000000000000000000000000000000000000000000000000000000000000000000000000000000000000000000000000000000000000000550055005500550055005500550055005500550000000000000000000000000000000000000000000000000000000000000000000000000000000000000000000000000000000000000000000000000000000000000000000000000000000000000000000000000000000000000000000000000000000000000000000000000000
#0743a0:000000000000000000000000000000000000000000000000000000000000000000000000000000000000000000000000145454545454545454545454240000000000000000000000000000000000000000000000000000000000000000000000
#074390:000000000000000000000000000000000000000000000000000000000000000000000000000000000000000000000000000000000000000000000000000000000000000000000000000000000000000000000000000000000000000000000000005500550055005500550055005500550055005500550055000000000000000000000000000000000000000000000000000000000000000000000000000000000000000000000000000000000000000000000000000000000000000000000000
#074361:0000000000140000
#074341:000000000000000000000000000000000000000000000000000000000000000000000000000000000000000000000000000000000000000000000000000000000000000000000000000000000000000000000000000000000000000000000000000000000000000000000000000000000000000000000000005500550000550055005500000000000000000000000000000000000000000000000000000000000000000000000000000000000000000000000000000000000000000000000000
#074351:000000000000000000000000000000000000000000000000000000000000000000000000000000000000000000000000000000000000000000000000005555000000000000000000000000000000000000000000000000000000000000000000
#074331:000000000000000000000000000000000000000000000000000000000000000000000000000000000000000000000000000000000000000000000000000000000000000000000000000000000000000000000000000000000000000000000000000000000000000000000000000000000000000000000000000000000055005500550000550055005500550054005400000000000000000000000000000000000000000000000000000000000000000000000000000000000000000000000000
#074321:000000000000000000000000000000000000000000000000000000000000000000000000000000000000000000000000000000000000000000000000000000000000000000000000000000000000000000000000000000000000000000000000000000000000000000000000000000000000000000000000000000000000000000000055005500550055005400540054555455545554555455545554555455545554555455545554240000000000000000000000000000000000000000000000
#074360:000000000000000000000000000000000000000000000000000000000000000000000000000000000000000000000000000000000000000000000000000000000000000000000000000000000000000000000000145555000000000000000000
#074370:000000000000000000000000000000000000000000000000000000000000000000000000000000000000000000000000000000000000000000000000000000000000000000000000000000000000000000000000000000000000000000000000000000000000000000000000000000000000000000000000000000000000000000000000000000000000000000000000000000000000000000000000000000000000000000000000005500550000550055005500000000000000000000000000
#074380:000000000000000000000000000000000000000000000000000000000000000000000000000000000000000000000000000000000000000000000000000000000000000000000000000000000000000000000000000000000000000000000000000000000000000000000000000000000000000000000000000000000000000000000000000000000000000000000000000000000000000000000000000000000000000000000000000000000055005500550000550055005500550000000000
#074390:000000000000000000000000000000000000000000000000000000000000000000000000000000000000000000000000000000000000000000000000000000000000000000000000000000000000000000000000000000000000000000000000000000000000000000000000000000000000000000000000000000000000000000000000000000000000000000000000000000000000000000000000000000000000000000000000000000000000000000000055005500550055000054005400
#0743a0:000000000000000000000000000000000000000000000000000000000000000000000000000000000000000000000000000000000000000000000000000000000000000000000000000000000000000000000000000000000000000000000000000000000000000000000000000000000000000000000000000000000000000000000000000000000000000000000000000000000000000000000000000000000000000000000000000000000000000000000000000000000000005400540054
#075390:555555555555555555555555000000000000000000000000000000000000000000000000000000000000000000000000000000000000000000000000000000000000000000000000000000000000000000000000000000000000000000000000
#0753a0:005400540054005400540054005400540054005400540054240000000000000000000000000000000000000000000000000000000000000000000000000000000000000000000000000000000000000000000000000000000000000000000000000000000000000000000000000000000000000000000000000000000000000000000000000000000000000000000000000000000000000000000000000000000000000000000000000000000000000000000000000000000000000000000000
#075361:0013000000000000
#075341:0000000000000000000000000000000000530000530053000000000000000000000000000000000000000000000000000000000000000000000000000000000000000000000000000000000000000000000000000000000000000000000000000000000000000000000000000000000000000000000000000000000000000000
#075351:00000000000000000053000000000000000000000000000000000000000000000000000000000000000000000000000000000000000000000000000000000000
#075331:0000000000000000000000000000000000000053005300005300530053005300000000000000000000000000000000000000000000000000000000000000000000000000000000000000000000000000000000000000000000000000000000000000000000000000000000000000000000000000000000000000000000000000
#075321:0000000000000000000000000000000000000000000000530053005300530053230000000000000000000000000000000000000000000000000000000000000000000000000000000000000000000000000000000000000000000000000000000000000000000000000000000000000000000000000000000000000000000000
#075370:00130000
#075390:0000000000000000000000000000000000000000000000000000000000000000005300005300530000000000000000000000000000000000000000000000000000000000000000000000000000000000000000000000000000000000000000000000000000000000000000000000000000000000000000000000000000000000
#075380:00000000000000000000000000000000005300000000000000000000000000000000000000000000000000000000000000000000000000000000000000000000
#0753a0:0000000000000000000000000000000000000000000000000000000000000000000000530053000053005300530053000000000000000000000000000000000000000000000000000000000000000000000000000000000000000000000000000000000000000000000000000000000000000000000000000000000000000000
#0753b0:0000000000000000000000000000000000000000000000000000000000000000000000000000005300530053005300532300000000000000000000000000000000000000000000000000000000000000000000000000000000000000000000000000000000000000000000000000000000000000000000000000000000000000
#075361:0000001300000000
#075341:0000000000000000000000000000000000000000000000000000000000000000000000000000000000000000000000000053000053005300000000000000000000000000000000000000000000000000000000000000000000000000000000000000000000000000000000000000000000000000000000000000000000000000
#075351:00000000000000000000000000000000000000000000000000530000000000000000000000000000000000000000000000000000000000000000000000000000
#075331:0000000000000000000000000000000000000000000000000000000000000000000000000000000000000000000000000000005300530000530053005300530000000000000000000000000000000000000000000000000000000000000000000000000000000000000000000000000000000000000000000000000000000000
#075321:0000000000000000000000000000000000000000000000000000000000000000000000000000000000000000000000000000000000000053005300530053005323000000000000000000000000000000000000000000000000000000000000000000000000000000000000000000000000000000000000000000000000000000
#075360:000000000000000000000000000000000000000000000000000000000000000000000000000000000000000000000000145555000000000000000000000000000000000000000000000000000000000000000000000000000000000000000000
#075370:000000000000000000000000000000000000000000000000000000000000000000000000000000000000000000000000000000000000000000000000000000000000000000000000000000000000000000000000000000000000000000000000005500550000550055005500000000000000000000000000000000000000000000000000000000000000000000000000000000000000000000000000000000000000000000000000000000000000000000000000000000000000000000000000
#075380:000000000000000000000000000000000000000000000000000000000000000000000000000000000000000000000000000000000000000000000000000000000000000000000000000000000000000000000000000000000000000000000000000000000055005500550000550055005500550000000000000000000000000000000000000000000000000000000000000000000000000000000000000000000000000000000000000000000000000000000000000000000000000000000000
#075390:000000000000000000000000000000000000000000000000000000000000000000000000000000000000000000000000000000000000000000000000000000000000000000000000000000000000000000000000000000000000000000000000000000000000000000000055005500550055000054005400550055005500550055005500550055005500550055005500000000000000000000000000000000000000000000000000000000000000000000000000000000000000000000000000
#0753a0:000000000000000000000000000000000000000000000000000000000000000000000000000000000000000000000000000000000000000000000000000000000000000000000000000000000000000000000000000000000000000000000000000000000000000000000000000000000000005400540054005400540054005400540054005400540054005400540054240000000000000000000000000000000000000000000000000000000000000000000000000000000000000000000000
#075321:000000000000000000000000000000000000000000000000000000000000000000000000000000000000000000000000000000000000000000000000000000000000000000000000000000000000000000000000000000000000000000000000000000000000000000000000000000000000000000000000000000000000000000000000000000000000000000000000135453545354535453545354535453545354535453545354230000000000000000000000000000000000000000000000
#0753b0:000000000000000000000000000000000000000000000000000000000000000000000000000000000000000000000000000000000000000000000000000000000000000000000000000000000000000000000000135353535353535353535353
#0753a0:000000000000000000000000000000000000000000000000000000000000000000000000000000000000000000000000000000000000000000000000000000000000000000000000000000000000000000000000000000000000000000000000000000000000000000000000000000000000000000000000000000000000000000000000000000000000000000000000000000000000000000000000000000000000000000000000005400540054005400540054005400540054005400540054
#0763b0:23
#076321:145555000000000000000000000000000000000000000000000000000000000000000000000000000000000000000000000000000000000000000000000000000000000000000000000000000000000000000000000000000000000000000000
#076331:005500550000550055005500000000000000000000000000000000000000000000000000000000000000000000000000000000000000000000000000000000000000000000000000000000000000000000000000000000000000000000000000000000000000000000000000000000000000000000000000000000000000000000000000000000000000000000000000000000000000000000000000000000000000000000000000000000000000000000000000000000000000000000000000
#076341:000000000055005500550000550055005500550000000000000000000000000000000000000000000000000000000000000000000000000000000000000000000000000000000000000000000000000000000000000000000000000000000000000000000000000000000000000000000000000000000000000000000000000000000000000000000000000000000000000000000000000000000000000000000000000000000000000000000000000000000000000000000000000000000000
#076351:000000000000000000000055005500550055000054005400550055005500550055005500550055005500550055005500000000000000000000000000000000000000000000000000000000000000000000000000000000000000000000000000000000000000000000000000000000000000000000000000000000000000000000000000000000000000000000000000000000000000000000000000000000000000000000000000000000000000000000000000000000000000000000000000
#076361:000000000000000000000000000000000000005400540054005400540054005400540054005400540054005400540054240000000000000000000000000000000000000000000000000000000000000000000000000000000000000000000000000000000000000000000000000000000000000000000000000000000000000000000000000000000000000000000000000000000000000000000000000000000000000000000000000000000000000000000000000000000000000000000000
#0763b0:000000000000000000000000000000000000000000000000135353535353535353535353230000000000000000000000000000000000000000000000000000000000000000000000000000000000000000000000000000000000000000000000
#0763a0:000000000000000000000000000000000000000000000000000000000000000000000000000000000000000000000000005400540054005400540054005400540054005400540054000000000000000000000000000000000000000000000000000000000000000000000000000000000000000000000000000000000000000000000000000000000000000000000000000000000000000000000000000000000000000000000000000000000000000000000000000000000000000000000000
#076321:000000000000000000000000000000000000000000000000000000000000000000000000000000000000000000000000000000000000000000000000000000000000000000000000135453545354535453545354535453545354535453545354230000000000000000000000000000000000000000000000000000000000000000000000000000000000000000000000000000000000000000000000000000000000000000000000000000000000000000000000000000000000000000000000
#0763a0:0014
#076380:000000000000000000000000000000000000000000000000000000000000000000000000000000000000000000000000000000000000000000000000000000000000000000000000000000000000000000000000000000000000000000000000005500550000550055005500000000000000000000000000000000000000000000000000000000000000000000000000000000000000000000000000000000000000000000000000000000000000000000000000000000000000000000000000
#076390:000000000000000000000000000000000000000000000000000000000000000000000000000000000000000000000000005555000000000000000000000000000000000000000000000000000000000000000000000000000000000000000000
#076370:000000000000000000000000000000000000000000000000000000000000000000000000000000000000000000000000000000000000000000000000000000000000000000000000000000000000000000000000000000000000000000000000000000000055005500550000550055005500550054005400000000000000000000000000000000000000000000000000000000000000000000000000000000000000000000000000000000000000000000000000000000000000000000000000
#076360:000000000000000000000000000000000000000000000000000000000000000000000000000000000000000000000000000000000000000000000000000000000000000000000000000000000000000000000000000000000000000000000000000000000000000000000055005500550055005400540054555455545554555455545554555455545554555455545554240000000000000000000000000000000000000000000000000000000000000000000000000000000000000000000000
#076321:000000000000000000000000000000000000000000000000000000000000000000000000000000000000000000000000000000000000000000000000000000000000000000000000000000000000000000000000000000000000000000000000000000000000000000000000000000000000000000000000000000000000000000000000000000000000000000000000135453545354535453545354535453545354535453545354230000000000000000000000000000000000000000000000
#0763b0:000000000000000000000000000000000000000000000000000000000000000000000000000000000000000000000000000000000000000000000000000000000000000000000000000000000000000000000000135353535353535353535353
#0763a0:000000000000000000000000000000000000000000000000000000000000000000000000000000000000000000000000000000000000000000000000000000000000000000000000000000000000000000000000000000000000000000000000000000000000000000000000000000000000000000000000000000000000000000000000000000000000000000000000000000000000000000000000000000000000000000000000005400540054005400540054005400540054005400540054
#0773b0:23
#077361:14
#077341:005500550000550055005500000000000000000000000000000000000000000000000000000000000000000000000000000000000000000000000000000000000000000000000000000000000000000000000000000000000000000000000000000000000000000000000000000000000000000000000000000000000000000000000000000000000000000000000000000000000000000000000000000000000000000000000000000000000000000000000000000000000000000000000000
#077351:005555000000000000000000000000000000000000000000000000000000000000000000000000000000000000000000000000000000000000000000000000000000000000000000000000000000000000000000000000000000000000000000
#077331:000000000055005500550000550055005500550054005400000000000000000000000000000000000000000000000000000000000000000000000000000000000000000000000000000000000000000000000000000000000000000000000000000000000000000000000000000000000000000000000000000000000000000000000000000000000000000000000000000000000000000000000000000000000000000000000000000000000000000000000000000000000000000000000000
#077321:000000000000000000000055005500550055005400540054555455545554555455545554555455545554555455545554240000000000000000000000000000000000000000000000000000000000000000000000000000000000000000000000000000000000000000000000000000000000000000000000000000000000000000000000000000000000000000000000000000000000000000000000000000000000000000000000000000000000000000000000000000000000000000000000
#077360:000000000000000000000000000000000000000000000000145555000000000000000000000000000000000000000000000000000000000000000000000000000000000000000000000000000000000000000000000000000000000000000000
#077370:000000000000000000000000000000000000000000000000000000000000000000000000000000000000000000000000005500550000550055005500000000000000000000000000000000000000000000000000000000000000000000000000000000000000000000000000000000000000000000000000000000000000000000000000000000000000000000000000000000000000000000000000000000000000000000000000000000000000000000000000000000000000000000000000
#077380:000000000000000000000000000000000000000000000000000000000000000000000000000000000000000000000000000000000055005500550000550055005500550000000000000000000000000000000000000000000000000000000000000000000000000000000000000000000000000000000000000000000000000000000000000000000000000000000000000000000000000000000000000000000000000000000000000000000000000000000000000000000000000000000000
#077390:000000000000000000000000000000000000000000000000000000000000000000000000000000000000000000000000000000000000000000000055005500550055000054005400550055005500550055005500550055005500550055005500000000000000000000000000000000000000000000000000000000000000000000000000000000000000000000000000000000000000000000000000000000000000000000000000000000000000000000000000000000000000000000000000
#0773a0:000000000000000000000000000000000000000000000000000000000000000000000000000000000000000000000000000000000000000000000000000000000000005400540054005400540054005400540054005400540054005400540054240000000000000000000000000000000000000000000000000000000000000000000000000000000000000000000000000000000000000000000000000000000000000000000000000000000000000000000000000000000000000000000000
#077361:0014
#077341:000000000000000000000000000000000000000000000000000000000000000000000000000000000000000000000000000000000000000000000000000000000000000000000000000000000000000000000000000000000000000000000000005500550000550055005500000000000000000000000000000000000000000000000000000000000000000000000000000000000000000000000000000000000000000000000000000000000000000000000000000000000000000000000000
#077351:000000000000000000000000000000000000000000000000000000000000000000000000000000000000000000000000005555000000000000000000000000000000000000000000000000000000000000000000000000000000000000000000
#077331:000000000000000000000000000000000000000000000000000000000000000000000000000000000000000000000000000000000000000000000000000000000000000000000000000000000000000000000000000000000000000000000000000000000055005500550000550055005500550054005400000000000000000000000000000000000000000000000000000000000000000000000000000000000000000000000000000000000000000000000000000000000000000000000000
#077321:000000000000000000000000000000000000000000000000000000000000000000000000000000000000000000000000000000000000000000000000000000000000000000000000000000000000000000000000000000000000000000000000000000000000000000000055005500550055005400540054555455545554555455545554555455545554555455545554240000000000000000000000000000000000000000000000000000000000000000000000000000000000000000000000
#0773a0:000000000000000000000000000000000000000000000000000000000000000000000000000000000000000000000000000000000000000000000000000000000000000000000000135353535353535353535353535353535353535353535353
#077390:000000000000000000000000000000000000000000000000000000000000000000000000000000000000000000000000000000000000000000000000000000000000000000000000000000000000000000000000000000000000000000000000000000000000000000000000000000000000000000000000000000000000000000000000000000000000000000000000005500550055005500550055005500550055005500550055005500550055005500550055005500550055005500550055
#0783a0:23
#078331:135353535353535353535353535353535353535353535353230000000000000000000000000000000000000000000000000000000000000000000000000000000000000000000000000000000000000000000000000000000000000000000000
#078321:005500550055005500550055005500550055005500550055005500550055005500550055005500550055005500550055000000000000000000000000000000000000000000000000000000000000000000000000000000000000000000000000000000000000000000000000000000000000000000000000000000000000000000000000000000000000000000000000000000000000000000000000000000000000000000000000000000000000000000000000000000000000000000000000
#0783b0:000000000000000000000000000000000000000000000000135353535353535353535353535353535353535353535353230000000000000000000000000000000000000000000000000000000000000000000000000000000000000000000000
#0783a0:000000000000000000000000000000000000000000000000000000000000000000000000000000000000000000000000005400540054005400540054005400540054005400540054005400540054005400540054005400540054005400540054000000000000000000000000000000000000000000000000000000000000000000000000000000000000000000000000000000000000000000000000000000000000000000000000000000000000000000000000000000000000000000000000
#078321:000000000000000000000000000000000000000000000000000000000000000000000000000000000000000000000000000000000000000000000000000000000000000000000000000000000000000000000000000000000000000000000000135453545354535453545354535453545354535453545354230000000000000000000000000000000000000000000000000000000000000000000000000000000000000000000000000000000000000000000000000000000000000000000000
#078350:0000000000160000
#078370:000000000000000000000000000000000000000000000000000000000000000000000000000000000000000000000000000000000000000000000000000000000000000000000000000000000000000000000000000000000000000000000000000000000000000000000000000000000000000000000000005600005600000000000000000000000000000000000000000000000000000000000000000000000000000000000000000000000000000000000000000000000000000000000000
#078360:000000000000000000000000000000000000000000000000000000000000000000000000000000000000000000000000000000000000000000000000005600000000000000000000000000000000000000000000000000000000000000000000
#078380:000000000000000000000000000000000000000000000000000000000000000000000000000000000000000000000000000000000000000000000000000000000000000000000000000000000000000000000000000000000000000000000000000000000000000000000000000000000000000000000000000000560000550055000000000000000000000000000000000000000000000000000000000000000000000000000000000000000000000000000000000000000000000000000000
#078390:000000000000000000000000000000000000000000000000000000000000000000000000000000000000000000000000000000000000000000000000000000000000000000000000000000000000000000000000000000000000000000000000000000000000000000000000000000000000000000000000000000000055005500005400550055005500550055005500550055005500550055005500550055005500550055005500000000000000000000000000000000000000000000000000
#0783a0:000000000000000000000000000000000000000000000000000000000000000000000000000000000000000000000000000000000000000000000000000000000000000000000000000000000000000000000000000000000000000000000000000000000000000000000000000000000000000000000000000000000000000000540054005400540054005400540054005400540054005400540054005400540054005400540054240000000000000000000000000000000000000000000000
#078361:0000000000000014
#078341:000000000000000000000000000000000000000000000000000000000000000000000000000000000000000000000000000000000000000000000000000000000000000000000000000000000000000000000000000000000000000000000000000000000000000000000000000000000000000000000000000000000000000000000000000000000000000000000000000000000000000000000000000000000000000000000000005500550000550055005500000000000000000000000000
#078351:000000000000000000000000000000000000000000000000000000000000000000000000000000000000000000000000000000000000000000000000000000000000000000000000000000000000000000000000005555000000000000000000
#078331:000000000000000000000000000000000000000000000000000000000000000000000000000000000000000000000000000000000000000000000000000000000000000000000000000000000000000000000000000000000000000000000000000000000000000000000000000000000000000000000000000000000000000000000000000000000000000000000000000000000000000000000000000000000000000000000000000000000055005500550000550055005500550054005400
#078321:000000000000000000000000000000000000000000000000000000000000000000000000000000000000000000000000000000000000000000000000000000000000000000000000000000000000000000000000000000000000000000000000000000000000000000000000000000000000000000000000000000000000000000000000000000000000000000000000000000000000000000000000000000000000000000000000000000000000000000000055005500550055005400540054
#079321:555455545554555455545554555455545554555455545554240000000000000000000000000000000000000000000000000000000000000000000000000000000000000000000000000000000000000000000000000000000000000000000000000000000000000000000000000000000000000000000000000000000000000000000000000000000000000000000000000000000000000000000000000000000000000000000000000000000000000000000000000000000000000000000000
#079380:000000000000000000000000135353535353535353535353230000000000000000000000000000000000000000000000000000000000000000000000000000000000000000000000000000000000000000000000000000000000000000000000
#079370:000000000000000000000000000000000000000000000000005500550055005500550055005500550055005500550055000000000000000000000000000000000000000000000000000000000000000000000000000000000000000000000000000000000000000000000000000000000000000000000000000000000000000000000000000000000000000000000000000000000000000000000000000000000000000000000000000000000000000000000000000000000000000000000000
#079351:000000000000000000000000000000000000000000000000135353535353535353535353230000000000000000000000000000000000000000000000000000000000000000000000000000000000000000000000000000000000000000000000
#079341:000000000000000000000000000000000000000000000000000000000000000000000000000000000000000000000000005500550055005500550055005500550055005500550055000000000000000000000000000000000000000000000000000000000000000000000000000000000000000000000000000000000000000000000000000000000000000000000000000000000000000000000000000000000000000000000000000000000000000000000000000000000000000000000000
#0793b0:000000000000000000000000000000000000000000000000000000000000000000000000135353535353535353535353230000000000000000000000000000000000000000000000000000000000000000000000000000000000000000000000
#0793a0:000000000000000000000000000000000000000000000000000000000000000000000000000000000000000000000000000000000000000000000000000000000000000000000000005400540054005400540054005400540054005400540054000000000000000000000000000000000000000000000000000000000000000000000000000000000000000000000000000000000000000000000000000000000000000000000000000000000000000000000000000000000000000000000000
#079321:000000000000000000000000000000000000000000000000000000000000000000000000000000000000000000000000000000000000000000000000000000000000000000000000000000000000000000000000000000000000000000000000135453545354535453545354535453545354535453545354230000000000000000000000000000000000000000000000000000000000000000000000000000000000000000000000000000000000000000000000000000000000000000000000
#079380:000000000000000000000000000000000000000000000000000000000000000000000000000000000000000000000000000000000000000000000000145454545454545454545454240000000000000000000000000000000000000000000000
#079370:000000000000000000000000000000000000000000000000000000000000000000000000000000000000000000000000000000000000000000000000000000000000000000000000000000000000000000000000000000000000000000000000000000000000000000000000000000000000000000000000005600560056005600560056005600560056005600560056000000000000000000000000000000000000000000000000000000000000000000000000000000000000000000000000
#079341:000000000000000000000000000000000000000000000000000000000000000000000000000000000000000000000000000000000000000000000000000000000000000000000000145454545454545454545454240000000000000000000000
#079331:000000000000000000000000000000000000000000000000000000000000000000000000000000000000000000000000000000000000000000000000000000000000000000000000000000000000000000000000000000000000000000000000000000000000000000000000000000000000000000000000000000000000000000000000000000000000000000000000005600560056005600560056005600560056005600560056000000000000000000000000000000000000000000000000
#079380:000000000000000000000000000000000000000000000000000000000000000000000000000000000000000000000000000000000000000000000000000000000000000000000000000000000000000000000000145454545454545454545454
#079370:000000000000000000000000000000000000000000000000000000000000000000000000000000000000000000000000000000000000000000000000000000000000000000000000000000000000000000000000000000000000000000000000000000000000000000000000000000000000000000000000000000000000000000000000000000000000000000000000000000000000000000000000000000000000000000000000005600560056005600560056005600560056005600560056
#080380:24
#080341:145454545454545454545454545454545454545454545454240000000000000000000000000000000000000000000000000000000000000000000000000000000000000000000000000000000000000000000000000000000000000000000000
#080331:005600560056005600560056005600560056005600560056005600560056005600560056005600560056005600560056000000000000000000000000000000000000000000000000000000000000000000000000000000000000000000000000000000000000000000000000000000000000000000000000000000000000000000000000000000000000000000000000000000000000000000000000000000000000000000000000000000000000000000000000000000000000000000000000
#080381:000000000000000000000000000000000000000000000000000000000000000000000000000000000000000000000000145454545454545454545454545454545454545454545454240000000000000000000000000000000000000000000000
#080371:000000000000000000000000000000000000000000000000000000000000000000000000000000000000000000000000000000000000000000000000000000000000000000000000000000000000000000000000000000000000000000000000005600560056005600560056005600560056005600560056005600560056005600560056005600560056005600560056000000000000000000000000000000000000000000000000000000000000000000000000000000000000000000000000
#081361:14
#081341:005500550000550055005500000000000000000000000000000000000000000000000000000000000000000000000000000000000000000000000000000000000000000000000000000000000000000000000000000000000000000000000000000000000000000000000000000000000000000000000000000000000000000000000000000000000000000000000000000000000000000000000000000000000000000000000000000000000000000000000000000000000000000000000000
#081351:005555000000000000000000000000000000000000000000000000000000000000000000000000000000000000000000000000000000000000000000000000000000000000000000000000000000000000000000000000000000000000000000
#081331:000000000055005500550000550055005500550054005400000000000000000000000000000000000000000000000000000000000000000000000000000000000000000000000000000000000000000000000000000000000000000000000000000000000000000000000000000000000000000000000000000000000000000000000000000000000000000000000000000000000000000000000000000000000000000000000000000000000000000000000000000000000000000000000000
#081321:000000000000000000000055005500550055005400540054555455545554555455545554555455545554555455545554240000000000000000000000000000000000000000000000000000000000000000000000000000000000000000000000000000000000000000000000000000000000000000000000000000000000000000000000000000000000000000000000000000000000000000000000000000000000000000000000000000000000000000000000000000000000000000000000
#081360:000000000000000000000000000000000000000000000000145555000000000000000000000000000000000000000000000000000000000000000000000000000000000000000000000000000000000000000000000000000000000000000000
#081370:000000000000000000000000000000000000000000000000000000000000000000000000000000000000000000000000005500550000550055005500000000000000000000000000000000000000000000000000000000000000000000000000000000000000000000000000000000000000000000000000000000000000000000000000000000000000000000000000000000000000000000000000000000000000000000000000000000000000000000000000000000000000000000000000
#081380:000000000000000000000000000000000000000000000000000000000000000000000000000000000000000000000000000000000055005500550000550055005500550000000000000000000000000000000000000000000000000000000000000000000000000000000000000000000000000000000000000000000000000000000000000000000000000000000000000000000000000000000000000000000000000000000000000000000000000000000000000000000000000000000000
#081390:000000000000000000000000000000000000000000000000000000000000000000000000000000000000000000000000000000000000000000000055005500550055000054005400550055005500550055005500550055005500550055005500000000000000000000000000000000000000000000000000000000000000000000000000000000000000000000000000000000000000000000000000000000000000000000000000000000000000000000000000000000000000000000000000
#0813a0:000000000000000000000000000000000000000000000000000000000000000000000000000000000000000000000000000000000000000000000000000000000000005400540054005400540054005400540054005400540054005400540054240000000000000000000000000000000000000000000000000000000000000000000000000000000000000000000000000000000000000000000000000000000000000000000000000000000000000000000000000000000000000000000000
#081361:0014
#081341:000000000000000000000000000000000000000000000000000000000000000000000000000000000000000000000000000000000000000000000000000000000000000000000000000000000000000000000000000000000000000000000000005500550000550055005500000000000000000000000000000000000000000000000000000000000000000000000000000000000000000000000000000000000000000000000000000000000000000000000000000000000000000000000000
#081351:000000000000000000000000000000000000000000000000000000000000000000000000000000000000000000000000005555000000000000000000000000000000000000000000000000000000000000000000000000000000000000000000
#081331:000000000000000000000000000000000000000000000000000000000000000000000000000000000000000000000000000000000000000000000000000000000000000000000000000000000000000000000000000000000000000000000000000000000055005500550000550055005500550054005400000000000000000000000000000000000000000000000000000000000000000000000000000000000000000000000000000000000000000000000000000000000000000000000000
#081321:000000000000000000000000000000000000000000000000000000000000000000000000000000000000000000000000000000000000000000000000000000000000000000000000000000000000000000000000000000000000000000000000000000000000000000000055005500550055005400540054555455545554555455545554555455545554555455545554240000000000000000000000000000000000000000000000000000000000000000000000000000000000000000000000
#0813a1:000000000000000000000000000000000000000000000000000000000000000000000000000000000000000000000000000000000000000000000000000000000000000000000000000000000000000000000000145454545454545454545454
#081391:000000000000000000000000000000000000000000000000000000000000000000000000000000000000000000000000000000000000000000000000000000000000000000000000000000000000000000000000000000000000000000000000000000000000000000000000000000000000000000000000000000000000000000000000000000000000000000000000000000000000000000000000000000000000000000000000005500550055005500550055005500550055005500550055
#0823a1:24
#082371:000000000000000000000000145454545454545454545454240000000000000000000000000000000000000000000000000000000000000000000000000000000000000000000000000000000000000000000000000000000000000000000000
#082361:000000000000000000000000000000000000000000000000005500550055005500550055005500550055005500550055000000000000000000000000000000000000000000000000000000000000000000000000000000000000000000000000000000000000000000000000000000000000000000000000000000000000000000000000000000000000000000000000000000000000000000000000000000000000000000000000000000000000000000000000000000000000000000000000
#0823a1:000000000000000000000000000000000000000000000000000000000000000000000000145454545454545454545454240000000000000000000000000000000000000000000000000000000000000000000000000000000000000000000000
#082391:000000000000000000000000000000000000000000000000000000000000000000000000000000000000000000000000000000000000000000000000000000000000000000000000005500550055005500550055005500550055005500550055000000000000000000000000000000000000000000000000000000000000000000000000000000000000000000000000000000000000000000000000000000000000000000000000000000000000000000000000000000000000000000000000
#0823a1:0000000000140000
#082381:000000000000000000000000000000000000000000000000000000000000000000000000000000000000000000000000000000000000000000000000000000000000000000000000000000000000000000000000000000000000000000000000000000000000000000000000000000000000000000000000005500550000550055005500000000000000000000000000000000000000000000000000000000000000000000000000000000000000000000000000000000000000000000000000
#082391:000000000000000000000000000000000000000000000000000000000000000000000000000000000000000000000000000000000000000000000000005555000000000000000000000000000000000000000000000000000000000000000000
#082371:000000000000000000000000000000000000000000000000000000000000000000000000000000000000000000000000000000000000000000000000000000000000000000000000000000000000000000000000000000000000000000000000000000000000000000000000000000000000000000000000000000000055005500550000550055005500550054005400000000000000000000000000000000000000000000000000000000000000000000000000000000000000000000000000
#082361:000000000000000000000000000000000000000000000000000000000000000000000000000000000000000000000000000000000000000000000000000000000000000000000000000000000000000000000000000000000000000000000000000000000000000000000000000000000000000000000000000000000000000000000055005500550055005400540054555455545554555455545554555455545554555455545554240000000000000000000000000000000000000000000000
#082320:000000000000000000000000000000000000000000000000000000000000000000000000000000000000000000000000000000000000000000000000000000000000000000000000000000000000000000000000145555000000000000000000
#082330:000000000000000000000000000000000000000000000000000000000000000000000000000000000000000000000000000000000000000000000000000000000000000000000000000000000000000000000000000000000000000000000000000000000000000000000000000000000000000000000000000000000000000000000000000000000000000000000000000000000000000000000000000000000000000000000000005500550000550055005500000000000000000000000000
#082340:000000000000000000000000000000000000000000000000000000000000000000000000000000000000000000000000000000000000000000000000000000000000000000000000000000000000000000000000000000000000000000000000000000000000000000000000000000000000000000000000000000000000000000000000000000000000000000000000000000000000000000000000000000000000000000000000000000000055005500550000550055005500550000000000
#082350:000000000000000000000000000000000000000000000000000000000000000000000000000000000000000000000000000000000000000000000000000000000000000000000000000000000000000000000000000000000000000000000000000000000000000000000000000000000000000000000000000000000000000000000000000000000000000000000000000000000000000000000000000000000000000000000000000000000000000000000055005500550055000054005400
#082360:000000000000000000000000000000000000000000000000000000000000000000000000000000000000000000000000000000000000000000000000000000000000000000000000000000000000000000000000000000000000000000000000000000000000000000000000000000000000000000000000000000000000000000000000000000000000000000000000000000000000000000000000000000000000000000000000000000000000000000000000000000000000005400540054
#083350:555555555555555555555555000000000000000000000000000000000000000000000000000000000000000000000000000000000000000000000000000000000000000000000000000000000000000000000000000000000000000000000000
#083360:005400540054005400540054005400540054005400540054240000000000000000000000000000000000000000000000000000000000000000000000000000000000000000000000000000000000000000000000000000000000000000000000000000000000000000000000000000000000000000000000000000000000000000000000000000000000000000000000000000000000000000000000000000000000000000000000000000000000000000000000000000000000000000000000
#083340:000000000000000000000000000000000000000000000000000000000000000000000000000000000000000000000000145554555455545554555455545554555455545554555455240000000000000000000000000000000000000000000000000000000000000000000000000000000000000000000000000000000000000000000000000000000000000000000000000000000000000000000000000000000000000000000000000000000000000000000000000000000000000000000000
#083320:000000000000000000000000000000000000000000000000000000000000000000000000000000000000000000000000145555000000000000000000000000000000000000000000000000000000000000000000000000000000000000000000
#083330:000000000000000000000000000000000000000000000000000000000000000000000000000000000000000000000000000000000000000000000000000000000000000000000000000000000000000000000000000000000000000000000000005500550000550055005500000000000000000000000000000000000000000000000000000000000000000000000000000000000000000000000000000000000000000000000000000000000000000000000000000000000000000000000000
#083340:000000000000000000000000000000000000000000000000000000000000000000000000000000000000000000000000000000000000000000000000000000000000000000000000000000000000000000000000000000000000000000000000000000000055005500550000550055005500550000000000000000000000000000000000000000000000000000000000000000000000000000000000000000000000000000000000000000000000000000000000000000000000000000000000
#083350:000000000000000000000000000000000000000000000000000000000000000000000000000000000000000000000000000000000000000000000000000000000000000000000000000000000000000000000000000000000000000000000000000000000000000000000055005500550055000054005400550055005500550055005500550055005500550055005500000000000000000000000000000000000000000000000000000000000000000000000000000000000000000000000000
#083360:000000000000000000000000000000000000000000000000000000000000000000000000000000000000000000000000000000000000000000000000000000000000000000000000000000000000000000000000000000000000000000000000000000000000000000000000000000000000005400540054005400540054005400540054005400540054005400540054240000000000000000000000000000000000000000000000000000000000000000000000000000000000000000000000
#0833a1:00000014
#083381:000000000000000000000000000000000000000000000000000000000000000000000000000000000000000000000000000000000000000000000000000000000000000000000000000000000000000000000000000000000000000000000000000000000000000000000000000000000000000000000000000000000000000000000000000000000000000000000000005500550000550055005500000000000000000000000000000000000000000000000000000000000000000000000000
#083391:000000000000000000000000000000000000000000000000000000000000000000000000000000000000000000000000000000000000000000000000000000000000000000000000005555000000000000000000000000000000000000000000
#083371:000000000000000000000000000000000000000000000000000000000000000000000000000000000000000000000000000000000000000000000000000000000000000000000000000000000000000000000000000000000000000000000000000000000000000000000000000000000000000000000000000000000000000000000000000000000000000000000000000000000055005500550000550055005500550054005400000000000000000000000000000000000000000000000000
#083361:000000000000000000000000000000000000000000000000000000000000000000000000000000000000000000000000000000000000000000000000000000000000000000000000000000000000000000000000000000000000000000000000000000000000000000000000000000000000000000000000000000000000000000000000000000000000000000000000000000000000000000000055005500550055005400540054555455545554555455545554555455545554555455545554
#084361:24
#084320:145555000000000000000000000000000000000000000000000000000000000000000000000000000000000000000000000000000000000000000000000000000000000000000000000000000000000000000000000000000000000000000000
#084330:005500550000550055005500000000000000000000000000000000000000000000000000000000000000000000000000000000000000000000000000000000000000000000000000000000000000000000000000000000000000000000000000000000000000000000000000000000000000000000000000000000000000000000000000000000000000000000000000000000000000000000000000000000000000000000000000000000000000000000000000000000000000000000000000
#084340:000000000055005500550000550055005500550000000000000000000000000000000000000000000000000000000000000000000000000000000000000000000000000000000000000000000000000000000000000000000000000000000000000000000000000000000000000000000000000000000000000000000000000000000000000000000000000000000000000000000000000000000000000000000000000000000000000000000000000000000000000000000000000000000000
#084350:000000000000000000000055005500550055000054005400550055005500550055005500550055005500550055005500000000000000000000000000000000000000000000000000000000000000000000000000000000000000000000000000000000000000000000000000000000000000000000000000000000000000000000000000000000000000000000000000000000000000000000000000000000000000000000000000000000000000000000000000000000000000000000000000
#084360:000000000000000000000000000000000000005400540054005400540054005400540054005400540054005400540054240000000000000000000000000000000000000000000000000000000000000000000000000000000000000000000000000000000000000000000000000000000000000000000000000000000000000000000000000000000000000000000000000000000000000000000000000000000000000000000000000000000000000000000000000000000000000000000000
#0843a0:0014
#084380:000000000000000000000000000000000000000000000000000000000000000000000000000000000000000000000000000000000000000000000000000000000000000000000000000000000000000000000000000000000000000000000000005500550000550055005500000000000000000000000000000000000000000000000000000000000000000000000000000000000000000000000000000000000000000000000000000000000000000000000000000000000000000000000000
#084390:000000000000000000000000000000000000000000000000000000000000000000000000000000000000000000000000005555000000000000000000000000000000000000000000000000000000000000000000000000000000000000000000
#084370:000000000000000000000000000000000000000000000000000000000000000000000000000000000000000000000000000000000000000000000000000000000000000000000000000000000000000000000000000000000000000000000000000000000055005500550000550055005500550054005400000000000000000000000000000000000000000000000000000000000000000000000000000000000000000000000000000000000000000000000000000000000000000000000000
#084360:000000000000000000000000000000000000000000000000000000000000000000000000000000000000000000000000000000000000000000000000000000000000000000000000000000000000000000000000000000000000000000000000000000000000000000000055005500550055005400540054555455545554555455545554555455545554555455545554240000000000000000000000000000000000000000000000000000000000000000000000000000000000000000000000
#085360:14
#085340:005500550000550055005500000000000000000000000000000000000000000000000000000000000000000000000000000000000000000000000000000000000000000000000000000000000000000000000000000000000000000000000000000000000000000000000000000000000000000000000000000000000000000000000000000000000000000000000000000000000000000000000000000000000000000000000000000000000000000000000000000000000000000000000000
#085350:005555000000000000000000000000000000000000000000000000000000000000000000000000000000000000000000000000000000000000000000000000000000000000000000000000000000000000000000000000000000000000000000
#085330:000000000055005500550000550055005500550054005400000000000000000000000000000000000000000000000000000000000000000000000000000000000000000000000000000000000000000000000000000000000000000000000000000000000000000000000000000000000000000000000000000000000000000000000000000000000000000000000000000000000000000000000000000000000000000000000000000000000000000000000000000000000000000000000000
#085320:000000000000000000000055005500550055005400540054555455545554555455545554555455545554555455545554240000000000000000000000000000000000000000000000000000000000000000000000000000000000000000000000000000000000000000000000000000000000000000000000000000000000000000000000000000000000000000000000000000000000000000000000000000000000000000000000000000000000000000000000000000000000000000000000
#085361:000000000000000000000000000000000000000000000000145555000000000000000000000000000000000000000000000000000000000000000000000000000000000000000000000000000000000000000000000000000000000000000000
#085371:000000000000000000000000000000000000000000000000000000000000000000000000000000000000000000000000005500550000550055005500000000000000000000000000000000000000000000000000000000000000000000000000000000000000000000000000000000000000000000000000000000000000000000000000000000000000000000000000000000000000000000000000000000000000000000000000000000000000000000000000000000000000000000000000
#085381:000000000000000000000000000000000000000000000000000000000000000000000000000000000000000000000000000000000055005500550000550055005500550000000000000000000000000000000000000000000000000000000000000000000000000000000000000000000000000000000000000000000000000000000000000000000000000000000000000000000000000000000000000000000000000000000000000000000000000000000000000000000000000000000000
#085391:000000000000000000000000000000000000000000000000000000000000000000000000000000000000000000000000000000000000000000000055005500550055000054005400550055005500550055005500550055005500550055005500000000000000000000000000000000000000000000000000000000000000000000000000000000000000000000000000000000000000000000000000000000000000000000000000000000000000000000000000000000000000000000000000
#0853a1:000000000000000000000000000000000000000000000000000000000000000000000000000000000000000000000000000000000000000000000000000000000000005400540054005400540054005400540054005400540054005400540054240000000000000000000000000000000000000000000000000000000000000000000000000000000000000000000000000000000000000000000000000000000000000000000000000000000000000000000000000000000000000000000000
#085360:0014
#085340:000000000000000000000000000000000000000000000000000000000000000000000000000000000000000000000000000000000000000000000000000000000000000000000000000000000000000000000000000000000000000000000000005500550000550055005500000000000000000000000000000000000000000000000000000000000000000000000000000000000000000000000000000000000000000000000000000000000000000000000000000000000000000000000000
#085350:000000000000000000000000000000000000000000000000000000000000000000000000000000000000000000000000005555000000000000000000000000000000000000000000000000000000000000000000000000000000000000000000
#085330:000000000000000000000000000000000000000000000000000000000000000000000000000000000000000000000000000000000000000000000000000000000000000000000000000000000000000000000000000000000000000000000000000000000055005500550000550055005500550054005400000000000000000000000000000000000000000000000000000000000000000000000000000000000000000000000000000000000000000000000000000000000000000000000000
#085320:000000000000000000000000000000000000000000000000000000000000000000000000000000000000000000000000000000000000000000000000000000000000000000000000000000000000000000000000000000000000000000000000000000000000000000000055005500550055005400540054555455545554555455545554555455545554555455545554240000000000000000000000000000000000000000000000000000000000000000000000000000000000000000000000
#086320:145554555455545554555455545554555455545554555455240000000000000000000000000000000000000000000000000000000000000000000000000000000000000000000000000000000000000000000000000000000000000000000000000000000000000000000000000000000000000000000000000000000000000000000000000000000000000000000000000000000000000000000000000000000000000000000000000000000000000000000000000000000000000000000000
#086350:000000000000000000000000000000000000000000000000000000000000000000000000000000000000000000000000145554555455545554555455545554555455545554555455240000000000000000000000000000000000000000000000000000000000000000000000000000000000000000000000000000000000000000000000000000000000000000000000000000000000000000000000000000000000000000000000000000000000000000000000000000000000000000000000
#086320:000000000000000000000000000000000000000000000000000000000000000000000000000000000000000000000000000000000000000000000000000000000000000000000000000000000000000000000000000000000000000000000000145554555455545554555455545554555455545554555455240000000000000000000000000000000000000000000000000000000000000000000000000000000000000000000000000000000000000000000000000000000000000000000000
#086361:000000000000000000000000000000000000000000000000000000000000000000000000000000000000000000000000000000000000000000000000145555000000000000000000000000000000000000000000000000000000000000000000
#086371:000000000000000000000000000000000000000000000000000000000000000000000000000000000000000000000000000000000000000000000000000000000000000000000000000000000000000000000000000000000000000000000000000000000000000000000000000000000000000000000000005500550000550055005500000000000000000000000000000000000000000000000000000000000000000000000000000000000000000000000000000000000000000000000000
#086381:000000000000000000000000000000000000000000000000000000000000000000000000000000000000000000000000000000000000000000000000000000000000000000000000000000000000000000000000000000000000000000000000000000000000000000000000000000000000000000000000000000000055005500550000550055005500550000000000000000000000000000000000000000000000000000000000000000000000000000000000000000000000000000000000
#086391:000000000000000000000000000000000000000000000000000000000000000000000000000000000000000000000000000000000000000000000000000000000000000000000000000000000000000000000000000000000000000000000000000000000000000000000000000000000000000000000000000000000000000000000055005500550055000054005400550055005500550055005500550055005500550055005500000000000000000000000000000000000000000000000000
#0863a1:000000000000000000000000000000000000000000000000000000000000000000000000000000000000000000000000000000000000000000000000000000000000000000000000000000000000000000000000000000000000000000000000000000000000000000000000000000000000000000000000000000000000000000000000000000000000005400540054005400540054005400540054005400540054005400540054240000000000000000000000000000000000000000000000
#086360:0000000000000014
#086340:000000000000000000000000000000000000000000000000000000000000000000000000000000000000000000000000000000000000000000000000000000000000000000000000000000000000000000000000000000000000000000000000000000000000000000000000000000000000000000000000000000000000000000000000000000000000000000000000000000000000000000000000000000000000000000000000005500550000550055005500000000000000000000000000
#086350:000000000000000000000000000000000000000000000000000000000000000000000000000000000000000000000000000000000000000000000000000000000000000000000000000000000000000000000000005555000000000000000000
#086330:000000000000000000000000000000000000000000000000000000000000000000000000000000000000000000000000000000000000000000000000000000000000000000000000000000000000000000000000000000000000000000000000000000000000000000000000000000000000000000000000000000000000000000000000000000000000000000000000000000000000000000000000000000000000000000000000000000000055005500550000550055005500550054005400
#086320:000000000000000000000000000000000000000000000000000000000000000000000000000000000000000000000000000000000000000000000000000000000000000000000000000000000000000000000000000000000000000000000000000000000000000000000000000000000000000000000000000000000000000000000000000000000000000000000000000000000000000000000000000000000000000000000000000000000000000000000055005500550055005400540054
#087320:555455545554555455545554555455545554555455545554240000000000000000000000000000000000000000000000000000000000000000000000000000000000000000000000000000000000000000000000000000000000000000000000000000000000000000000000000000000000000000000000000000000000000000000000000000000000000000000000000000000000000000000000000000000000000000000000000000000000000000000000000000000000000000000000
#0873a1:000000000000000000000000145454545454545454545454240000000000000000000000000000000000000000000000000000000000000000000000000000000000000000000000000000000000000000000000000000000000000000000000
#087391:000000000000000000000000000000000000000000000000005500550055005500550055005500550055005500550055000000000000000000000000000000000000000000000000000000000000000000000000000000000000000000000000000000000000000000000000000000000000000000000000000000000000000000000000000000000000000000000000000000000000000000000000000000000000000000000000000000000000000000000000000000000000000000000000
#087340:000000000000000000000000000000000000000000000000000000000000000000000000000000000000000000000000145554555455545554555455545554555455545554555455240000000000000000000000000000000000000000000000000000000000000000000000000000000000000000000000000000000000000000000000000000000000000000000000000000000000000000000000000000000000000000000000000000000000000000000000000000000000000000000000
#087320:000000000000000000000000000000000000000000000000000000000000000000000000000000000000000000000000000000000000000000000000000000000000000000000000000000000000000000000000000000000000000000000000145554555455545554555455545554555455545554555455240000000000000000000000000000000000000000000000000000000000000000000000000000000000000000000000000000000000000000000000000000000000000000000000
#087381:000000000000000000000000000000000000000000000000000000000000000000000000000000000000000000000000000000000000000000000000145454545454545454545454240000000000000000000000000000000000000000000000
#087371:000000000000000000000000000000000000000000000000000000000000000000000000000000000000000000000000000000000000000000000000000000000000000000000000000000000000000000000000000000000000000000000000000000000000000000000000000000000000000000000000005500550055005500550055005500550055005500550055000000000000000000000000000000000000000000000000000000000000000000000000000000000000000000000000
#088341:130053005500000055005300000053005300005300000000000000005300530053005500550000000053005300530000000000530054000000005300530053005300530000530000000000530053005300530054000000000053005300530000540000000000005300530000000000530000530053005300530000000000000000530000000000530053005300005300000053000000530000005300000053000000530000005300000053000000530000005300000053000000530000005300
#088331:005500550000005300530000530000000000000000000000000000530055005500550000005400000000550055000000000000000000000054000055005500000055000000000000000000005500550055000000000054005300550000000054000000530000550055000000000000000000005500000056000000000053000000000000000000005500000000000000350000000000000035000000000000003500000000000000350000000000000035000000000000003500000000000000
#088321:000000000055000000000000000000000000000000540000005400000000000000000055000000540000000000000000360000005400540000000000000000570000000054000000360000000000000000005400550000000000000057005700005400000054000000000000360000000053000000560000005300550000005300000000360000000000570053000000000000000053000000000000005300000000000000530000000000000053000000000000005300000000000000530000
#088351:000000000000540000000053005300530053000053000054000053000000000000000000000053005400000000000000000000000000005400540000000000000000005400000000000000000000000000000000005300530000000000000000000000005300000000000000000000000000000000000000000000005300540054000000000000000000000000000000000000000000000000000000000000000000000000000000000000000000000000000000000000000000000000000000
#088361:000000000000000000000000000000000000000000000000000000000000000000000000000000000000000000000000000000000000000000000000000000000000000000000000000000000000000000000000000000000000000000000000000053000000000000000000000000005300000000000000000053000000000000000000000000000000000000530000000000530000000000000053000000000000005300000000000000530000000000000053000000000000005300000000
#089331:25
#088390:130000000000000000000000000000000000000000530000000000530000000000000000000000000000000000530000000000530000000000000000000000000000000000000000000000000000000000530000000000530000000000000000000000000000000000000000000000000000000000530000000000530000000000000000000000000000000000005300000053000000530000005300000053000000530000005300000053000000530000005300000053000000530000005300
#088380:000000000000360000000000360000000000000000360000000000000000360000000000350035003500350035003500
#089380:25
#091370:0014
#0913a0:00000024
#001920:0014
#001960:00000024
#0019a1:00000014
#002971:24
#0149b1:13
#014971:00230000
#014920:00130000
#014960:0023
#016920:00130000
#016960:0023
#0169b1:0013
#016971:00000023
#016920:00000013
#017960:23
#0189b0:00130000
#018970:0023
#0189b0:00000013
#019970:23
#0209b0:13
#020970:00230000
#020921:00130000
#020961:0023
#022921:0000001300000000
#022961:0000000000530000
#022931:000000000000000000000000000000000000000000000000000000000000000000000000000000000000000000000000000000000000000000000000000000000000000000000000000000000000000000000000000000000000000000000000000000000000000000000000000000000000000000000000000000000000000000000000000000000000000000000000000000000000000000000000000000000000000000000000000000000000000000000000000000000000000000000000000000000000000000000000000000000000000000000000000000000000000000000000000000000000000000000000000000000000000000000000000000000000000000000000000000000000000000000000000000000000000000000000000000000000000000000000000000000000000000000000000000000000000000000000000000000000000000000000000000000000000000000000000000000000000000000000000000000000000000000000000000000000000000000000000000000000000000000000000000000000000000000000000000000000000000000000000000000000000000000000000000000000000000000000000000000000000000000000000000000000000000000000000000000000000000000000000000000000000000000000000000000000000000000000000000000000000000000000000000000000000000000000000000000000000000000000000000000000000000000000000000000000000000000000000000000000000000000000000000000000000000000000000000000000000000000000000000000000000000000000000000000000000000000000000000000000000000000000000000000000000000000000000000000000000000000000000000000000000000000000000000000000000000000000000000000000000000000000000000000000000000000000000000000000000000000000000000000000000000000000000000000000000000000000000000000000000000000000000000000000000000000000000000000000000000000000000000000000000000000000000000000000000000000000000000000000000000000000000000000000000000000000000000000000000000000000000000000000000000000000000000000000000000000000000000000000000000000000000000000000000000000000000000000000000000000000000000000000000000000000000000000000000000000000000000000000000000000000000000000000000000000000000000000000000000000000000000000000000000000000000000000000000000000000000000000000000000000000000000000000000000000000000000000000000000000000000000000000000000000000000000000000000000000000000000000000000000000000000000000000000000000000000000000000000000000000000000000000000000000000000000000000000000000000000000000000000000000000000000000000000000000000000000000000000000000000000000000000000000000000000000000000000000000000000000000000000000000000000000000000000000000000000000000000000000000000000000000000000000000000000000000000000000000000000000000000000000000000000000000000000000000000000000000000000000000000000000000000000000000000000000000000000000000000000000000000000000000000000000000000000000000000000000000000000000000000000000000000000000000000000000000000000000000000000000000000000000000000000000000000000000000000000000000000000000000000000000000000000000000000000000000000000000000000000000000000000000000000000000000000000000000000000000000000000000000000000000000000000000000000000000000000000000000000000000000000000000000000000000000000000000000000000000000000000000000000000000000000000000000000000000000000000000000000000000000000000000000000000000000000000000000000000000000000000000000000000000000000000000000000000000000000000000000000000000000000000000000000000000000000000000000000000000000000000000000000000000000000000000000000000000000000000000000000000000000000000000000000000000000000000000000000000000000000000000000000000000000000000000000000000000000000000000000000000000000000000000000000000000000000000000000000000000000000000000000000000000000000000000000000000000000000000000000000000000000000000000000000000000000000000000000000000000000000000000000000000000000000000000000000000000000000000000000000000000000000000000000000000000000000000000000000000000000000000000000000000000000000000000000000000000000000000000000000000000000000000000000000000000000000000000000000000000000000005353535353
#023931:23
#0249b1:0000001300000000
#024971:0000000000530000
#0249a1:000000000000000000000000000000000000000000000000000000000000000000000000000000000000000000000000000000000000000000000000000000000000000000000000000000000000000000000000000000000000000000000000000000000000000000000000000000000000000000000000000000000000000000000000000000000000000000000000000000000000000000000000000000000000000000000000000000000000000000000000000000000000000000000000000000000000000000000000000000000000000000000000000000000000000000000000000000000000000000000000000000000000000000000000000000000000000000000000000000000000000000000000000000000000000000000000000000000000000000000000000000000000000000000000000000000000000000000000000000000000000000000000000000000000000000000000000000000000000000000000000000000000000000000000000000000000000000000000000000000000000000000000000000000000000000000000000000000000000000000000000000000000000000000000000000000000000000000000000000000000000000000000000000000000000000000000000000000000000000000000000000000000000000000000000000000000000000000000000000000000000000000000000000000000000000000000000000000000000000000000000000000000000000000000000000000000000000000000000000000000000000000000000000000000000000000000000000000000000000000000000000000000000000000000000000000000000000000000000000000000000000000000000000000000000000000000000000000000000000000000000000000000000000000000000000000000000000000000000000000000000000000000000000000000000000000000000000000000000000000000000000000000000000000000000000000000000000000000000000000000000000000000000000000000000000000000000000000000000000000000000000000000000000000000000000000000000000000000000000000000000000000000000000000000000000000000000000000000000000000000000000000000000000000000000000000000000000000000000000000000000000000000000000000000000000000000000000000000000000000000000000000000000000000000000000000000000000000000000000000000000000000000000000000000000000000000000000000000000000000000000000000000000000000000000000000000000000000000000000000000000000000000000000000000000000000000000000000000000000000000000000000000000000000000000000000000000000000000000000000000000000000000000000000000000000000000000000000000000000000000000000000000000000000000000000000000000000000000000000000000000000000000000000000000000000000000000000000000000000000000000000000000000000000000000000000000000000000000000000000000000000000000000000000000000000000000000000000000000000000000000000000000000000000000000000000000000000000000000000000000000000000000000000000000000000000000000000000000000000000000000000000000000000000000000000000000000000000000000000000000000000000000000000000000000000000000000000000000000000000000000000000000000000000000000000000000000000000000000000000000000000000000000000000000000000000000000000000000000000000000000000000000000000000000000000000000000000000000000000000000000000000000000000000000000000000000000000000000000000000000000000000000000000000000000000000000000000000000000000000000000000000000000000000000000000000000000000000000000000000000000000000000000000000000000000000000000000000000000000000000000000000000000000000000000000000000000000000000000000000000000000000000000000000000000000000000000000000000000000000000000000000000000000000000000000000000000000000000000000000000000000000000000000000000000000000000000000000000000000000000000000000000000000000000000000000000000000000000000000000000000000000000000000000000000000000000000000000000000000000000000000000000000000000000000000000000000000000000000000000000000000000000000000000000000000000000000000000000000000000000000000000000000000000000000000000000000000000000000000000000000000000000000000000000000000000000000000000000000000000000000000000000000000000000000000000000000000000000000000000000000000000000000000000000000000000000000000000000000000000000000000000000000000000000000000000000000000000000005353535353
#0259a1:23
#026921:0000001300000000
#026961:0000000000530000
#026931:000000000000000000000000000000000000000000000000000000000000000000000000000000000000000000000000000000000000000000000000000000000000000000000000000000000000000000000000000000000000000000000000000000000000000000000000000000000000000000000000000000000000000000000000000000000000000000000000000000000000000000000000000000000000000000000000000000000000000000000000000000000000000000000000000000000000000000000000000000000000000000000000000000000000000000000000000000000000000000000000000000000000000000000000000000000000000000000000000000000000000000000000000000000000000000000000000000000000000000000000000000000000000000000000000000000000000000000000000000000000000000000000000000000000000000000000000000000000000000000000000000000000000000000000000000000000000000000000000000000000000000000000000000000000000000000000000000000000000000000000000000000000000000000000000000000000000000000000000000000000000000000000000000000000000000000000000000000000000000000000000000000000000000000000000000000000000000000000000000000000000000000000000000000000000000000000000000000000000000000000000000000000000000000000000000000000000000000000000000000000000000000000000000000000000000000000000000000000000000000000000000000000000000000000000000000000000000000000000000000000000000000000000000000000000000000000000000000000000000000000000000000000000000000000000000000000000000000000000000000000000000000000000000000000000000000000000000000000000000000000000000000000000000000000000000000000000000000000000000000000000000000000000000000000000000000000000000000000000000000000000000000000000000000000000000000000000000000000000000000000000000000000000000000000000000000000000000000000000000000000000000000000000000000000000000000000000000000000000000000000000000000000000000000000000000000000000000000000000000000000000000000000000000000000000000000000000000000000000000000000000000000000000000000000000000000000000000000000000000000000000000000000000000000000000000000000000000000000000000000000000000000000000000000000000000000000000000000000000000000000000000000000000000000000000000000000000000000000000000000000000000000000000000000000000000000000000000000000000000000000000000000000000000000000000000000000000000000000000000000000000000000000000000000000000000000000000000000000000000000000000000000000000000000000000000000000000000000000000000000000000000000000000000000000000000000000000000000000000000000000000000000000000000000000000000000000000000000000000000000000000000000000000000000000000000000000000000000000000000000000000000000000000000000000000000000000000000000000000000000000000000000000000000000000000000000000000000000000000000000000000000000000000000000000000000000000000000000000000000000000000000000000000000000000000000000000000000000000000000000000000000000000000000000000000000000000000000000000000000000000000000000000000000000000000000000000000000000000000000000000000000000000000000000000000000000000000000000000000000000000000000000000000000000000000000000000000000000000000000000000000000000000000000000000000000000000000000000000000000000000000000000000000000000000000000000000000000000000000000000000000000000000000000000000000000000000000000000000000000000000000000000000000000000000000000000000000000000000000000000000000000000000000000000000000000000000000000000000000000000000000000000000000000000000000000000000000000000000000000000000000000000000000000000000000000000000000000000000000000000000000000000000000000000000000000000000000000000000000000000000000000000000000000000000000000000000000000000000000000000000000000000000000000000000000000000000000000000000000000000000000000000000000000000000000000000000000000000000000000000000000000000000000000000000000000000000000000000000000000000000000000000000000000000000000000000000000000000000000000000000000000000000000000000000000000000000000000000000005353535353
#027931:23
#0719b1:001300000000000000000000000000000000000000000000000000000000000000000000000000000000000000000000000000000000000000000000000000000000000000000000000000000000000000000000000000000000000000000000000000000000000000000000000000000000000000000000000000000000000000000000000000000000000000000000000000000000000000000000000000000000000000000000000000000000000000000000000000000000000000000000000000000000000000000000000000000000000000000000000000000000000000000000000000000000000000000000000000000000000000000000000000000000000000000000000000000000000000000000000000000000000000000000000000000000000000000000000000000000000000000000000000000000000000000000000000000000000000000000000000000000000000000000000000000000000000000000000000000000000000000000000000000000000000000000000000000000000000000000000000000000000000000000000000000000000000000000000000000000000000000000000000000000000000000000000000000000000000000000000000000000000000000000000000000000000000000000000000000000000000000000000000000000000000000000000000000000000000000000000000000000000000000000000000000000000000000000000000000000000000000000000000000000000000000000000000000000000000000000000000000000000000000000000000000000000000000000000000000000000000000000000000000000000000000000000000000000000000000000000000000000000000000000000000000000000000000000000000000000000000000000000000000000000000000000000000000000000000000000000000000000000000000000000000000000000000000000000000000000000000000000000000000000000000000000000000000000000000000000000000000000000000000000000000000000000000000000000000000000000000000000000000000000000000000000000000000000000000000000000000000000000000000000000000000000000000000000000000000000000000000000000000000000000000000000000000000000000000000000000000000000000000000000000000000000000000000000000000000000000000000000000000000000000000000000000000000000000000000000000000000000000000000000000000000000000000000000000000000000000000000000000000000000000000000000000000000000000000000000000000000000000000000000000000000000000000000000000000000000000000000000000000000000000000000000000000000000000000000000000000000000000000000000000000000000000000000000000000000000000000000000000000000000000000000000000000000000000000000000000000000000000000000000000000000000000000000000000000000000000000000000000000000000000000000000000000000000000000000000000000000000000000000000000000000000000000000000000000000000000000000000000000000000000000000000000000000000000000000000000000000000000000000000000000000000000000000000000000000000000000000000000000000000000000000000000000000000000000000000000000000000000000000000000000000000000000000000000000000000000000000000000000000000000000000000000000000000000000000000000000000000000000000000000000000000000000000000000000000000000000000000000000000000000000000000000000000000000000000000000000000000000000000000000000000000000000000000000000000000000000000000000000000000000000000000000000000000000000000000000000000000000000000000000000000000000000000000000000000000000000000000000000000000000000000000000000000000000000000000000000000000000000000000000000000000000000000000000000000000000000000000000000000000000000000000000000000000000000000000000000000000000000000000000000000000000000000000000000000000000000000000000000000000000000000000000000000000000000000000000000000000000000000000000000000000000000000000000000000000000000000000000000000000000000000000000000000000000000000000000000000000000000000000000000000000000000000000000000000000000000000000000000000000000000000000000000000000000000000000000000000000000000000000000000000000000000000000000000000000000000000000000000000000000000000000000000000000000000000000000000000000000000000000000000000000000000000000000000000000000000000000000000000000000000000000000000000000000000000000000000000000000000000000000000000000000000000000
#071971:00230000
#071921:000000000000000000000000000000000000000000000000000000000000000000000000000000000000000000000000000000000000000000000000000000000000000000000000000000000000000000000000000000000000000000000000000000000000000000000000000000000000000000000000000000000000000000000000000000000000000000000000000000000000000000000000000000000000000000000000000000000000000000000000000000000000000000000000000000000000000000000000000000000000000000000000000000000000000000000000000000000000000000000000000000000000000000000000000000000000000000000000000000000000000000000000000000000000000000000000000000000000000000000000000000000000000000000000000000000000000000000000000000000000000000000000000000000000000000000000000000000000000000000000000000000000000000000000000000000000000000000000000000000000000000000000000000000000000000000000000000000000000000000000000000000000000000000000000000000000000000000000000000000000000000000000000000000000000000000000000000000000000000000000001300000000000000000000000000000000000000000000000000000000000000000000000000000000000000000000000000000000000000000000000000000000000000000000000000000000000000000000000000000000000000000000000000000000000000000000000000000000000000000000000000000000000000000000000000000000000000000000000000000000000000000000000000000000000000000000000000000000000000000000000000000000000000000000000000000000000000000000000000000000000000000000000000000000000000000000000000000000000000000000000000000000000000000000000000000000000000000000000000000000000000000000000000000000000000000000000000000000000000000000000000000000000000000000000000000000000000000000000000000000000000000000000000000000000000000000000000000000000000000000000000000000000000000000000000000000000000000000000000000000000000000000000000000000000000000000000000000000000000000000000000000000000000000000000000000000000000000000000000000000000000000000000000000000000000000000000000000000000000000000000000000000000000000000000000000000000000000000000000000000000000000000000000000000000000000000000000000000000000000000000000000000000000000000000000000000000000000000000000000000000000000000000000000000000000000000000000000000000000000000000000000000000000000000000000000000000000000000000000000000000000000000000000000000000000000000000000000000000000000000000000000000000000000000000000000000000000000000000000000000000000000000000000000000000000000000000000000000000000000000000000000000000000000000000000000000000000000000000000000000000000000000000000000000000000000000000000000000000000000000000000000000000000000000000000000000000000000000000000000000000000000000000000000000000000000000000000000000000000000000000000000000000000000000000000000000000000000000000000000000000000000000000000000000000000000000000000000000000000000000000000000000000000000000000000000000000000000000000000000000000000000000000000000000000000000000000000000000000000000000000000000000000000000000000000000000000000000000000000000000000000000000000000000000000000000000000000000000000000000000000000000000000000000000000000000000000000000000000000000000000000000000000000000000000000000000000000000000000000000000000000000000000000000000000000000000000000000000000000000000000000000000000000000000000000000000000000000000000000000000000000000000000000000000000000000000000000000000000000000000000000000000000000000000000000000000000000000000000000000000000000000000000000000000000000000000000000000000000000000000000000000000000000000000000000000000000000000000000000000000000000000000000000000000000000000000000000000000000000000000000000000000000000000000000000000000000000000000000000000000000000000000000000000000000000000000000000000000000000000000000000000000000000000000000000000000000000000000000000000000000000000000000000000000000000000000000000000000000000000000000000000000000000000000000000000000000000000000000000000000
#071961:0023
#089921:0014
#089961:00000024
#0899a0:00000014
#090970:24
