This file was generated by Ched 2.7.0.0.
#TITLE ""
#ARTIST ""
#DESIGNER ""
#DIFFICULTY 0
#PLAYLEVEL
#SONGID ""
#WAVE ""
#WAVEOFFSET 0
#JACKET ""
#REQUEST "ticks_per_beat 480"
#00002: 4
#BPM01: 145
#00008: 01
#TIL00: "66'1440:1, 66'1439:10000"
#VOLUME: ""
#HISPEED 00
#MEASUREHS 00
#0001a:14
#00112:14
#0021a:14
#00210:41
#0031a:14
#00412:14
#00512:14
#0101a:14
#01010:41
#0111a:14
#01214:14
#01314:14
#01418:14
#01518:14
#01612:14
#01712:14
#0181a:14
#01810:41
#0191a:14
#02012:14
#02112:14
#0261a:14
#02614:0014
#02610:41
#02718:14
#02712:0014
#03012:14
#03018:0014
#03114:14
#0311a:0014
#0341a:14
#03414:0014
#0341f:11
#03612:14
#03618:0014
#0381a:1414
#03912:1414
#04218:0016
#04212:26
#0421f:21
#04312:1616
#04310:41
#04418:16
#04412:0016
#04518:1616
#04612:1616
#04718:1616
#05012:16
#05018:0016
#05112:16
#05118:0016
#05212:16
#05218:0016
#05418:0016
#05512:16
#05518:0016
#05612:1616
#05914:14
#05918:0014
#05910:41
#06014:14
#06018:0014
#06318:14
#06314:0014
#06418:14
#06414:0014
#05718:26
#006380:14
#007380:24
#008340:14
#009340:24
#0223a0:14
#0233a0:24
#024320:14
#025320:24
#0283a0:14
#029380:3424
#032320:14
#033340:3424
#035380:1424
#037340:1424
#040380:14
#040390:0034
#0413a0:24
#048320:1626
#049380:1626
#053320:1636
#054320:26
#057380:16
#058380:26
#061320:14
#061330:0034
#062340:3424
#0653a0:14
#065390:0034
#066380:3424
#0669d0:000000000000000000000000000000000000000000000000000000000000000000000000000000000000000000000000000000000000000000000000000000000000000000000000000000000000000000000000000000000000000000000000000000000000000000000000000000000000000000000000000000000000000000000000000000000000000000000000000000000000000000000000000000000000000000000000000000000000000000000000000000000000000000000000000000000000000000000000000000000000000000000000000000000000000000000000000000000000000000000000000000000000000000000000000000000000000000000000000000000000000000000000000000000000000000000000000000000000000000000000000000000000000000000000000000000000000000000000000000000000000000000000000000000000000000000000000000000000000000000000000000000000000000000000000000000000000000000000000000000000000000000000000000000000000000000000000000000000000000000000000000000000000000000000000000000000000000000000000000000000000000000000000000000000000000000000000000000000000000000000000000000000000000000000000000000000000000000000000000000000000000000000000000000000000000000000000000000000000000000000000000000000000000000000000000000000000000000000000000000000000000000000000000000000000000000000000000000000000000000000000000000000000000000000000000000000000000000000000000000000000000000000000000000000000000000000000000000000000000000000000000000000000000000000000000000000000000000000000000000000000000000000000000000000000000000000000000000000000000000000000000000000000000000000000000000000000000000000000000000000000000000000000000000000000000000000000000000000000000000000000000000000000000000000000000000000000000000000000000000000000000000000000000000000000000000000000000000000000000000000000000000000000000000000000000000000000000000000000000000000000000000000000000000000000000000000000000000000000000000000000000000000000000000000000000000000000000000000000000000000000000000000000000000000000000000000000000000000000000000000000000000000000000000000000000000000000000000000000000000000000000000000000000000000000000000000000000000000000000000000000000000000000000000000000000000000000000000000000000000000000000000000000000000000000000000000000000000000000000000000000000000000000000000000000000000000000000000000000000000000000000000000000000000000000000000000000000000000000000000000000000000000000000000000000000000000000000000000000000000000000000000000000000000000000000000000000000000000000000000000000000000000000000000000000000000000000000000000000000000000000000000000000000000000000000000000000000000000000000000000000000000000000000000000000000000000000000000000000000000000000000000000000000000000000000000000000000000000000000000000000000000000000000000000000000000000000000000000000000000000000000000000000000000000000000000000000000000000000000000000000000000000000000000000000000000000000000000000000000000000000000000000000000000000000000000000000000000000000000000000112100000000000000000000000000000000000000000000000000000000000000000000000000000000000000000000000000000000000000000000000000000000000000000000000000000000000000000000000000000000000000000000000000000000000000000000000000000000000000000000000000000000000000000000000000000000000000000000000000000000000000000000000000000000000000000000000000000000000000000000000000000000000000000000000000000000000000000000000000000000000000000000000000000000000000000000000000000000000000000000000000000000000000000000000000000000000000000000000000000000000000000000000000000000000000000000000000000000000000000000000000000000000000000000000000000000000000000000000000000000000000000000000000000000000000000000000000000000000000000000000000000000000000000000000000000000000000000000000000000000000000000000000000000000000000000000000000000000000000000000000000000000000000000000000000000000000000000000000000000000000000000000000000000000000000000000000000000000000000000000
