This file was generated by Ched 2.7.0.0.
#TITLE ""
#ARTIST ""
#DESIGNER ""
#DIFFICULTY 0
#PLAYLEVEL
#SONGID ""
#WAVE ""
#WAVEOFFSET 0
#JACKET ""
#REQUEST "ticks_per_beat 480"
#00002: 4
#BPM01: 193
#00008: 01
#TIL00: ""
#VOLUME: ""
#HISPEED 00
#MEASUREHS 00
#0531f:11
#05314:14
#08418:16
#08318:16
#08212:16
#08112:16
#08110:41
#07618:0016
#07612:16
#07518:1616
#07412:1616
#07318:2616
#06812:0016
#06818:16
#06712:1616
#06618:1616
#06512:2616
#0651f:21
#06510:0041
#06214:14
#0611a:14
#06012:14
#05918:14
#05814:14
#0571a:14
#0541a:14
#05012:14
#04012:14
#03918:14
#03812:14
#03718:14
#03710:41
#03614:14
#0351a:14
#03414:14
#0011a:14
#02218:14
#02114:14
#0201a:14
#0191a:14
#01812:14
#0161a:14
#00812:14
#00712:14
#00618:14
#00518:14
#00414:14
#00314:14
#0021a:14
#04918:24
#01712:24
#0331a:24
#00910:41
#02510:41
#05110:41
#0093a0:14
#0113a0:24
#013320:14
#015320:24
#023340:14
#024340:24
#025380:14
#0273a0:24
#029340:14
#031320:24
#0413a0:14
#0423a0:24
#043340:14
#044340:24
#045380:14
#046380:24
#047320:14
#048320:24
#051380:14
#052380:24
#055340:14
#056340:24
#063380:14
#064380:0024
#069380:1626
#070320:1626
#071380:1626
#072320:1626
#077320:1626
#078380:1626
#079320:1626
#080380:1626
#085320:1600000000000036
#086340:0000000000000036
#087320:0000000000000036
#088340:0000000000000036
#089320:0000000000000036
#090330:00360000
#090320:0000000000360000
#091330:36
#091320:0000002600000000
#091380:0000000000001636
#092380:0000000036000036
#094360:0000005600000000
#0963a0:00000000000000000000000000340000
#0983a0:0024
