This file was generated by Ched 2.7.0.0.
#TITLE ""
#ARTIST ""
#DESIGNER ""
#DIFFICULTY 0
#PLAYLEVEL
#SONGID ""
#WAVE ""
#WAVEOFFSET 0
#JACKET ""
#REQUEST "ticks_per_beat 480"
#00002: 4
#BPM01: 153
#BPM02: 175
#00008: 01
#00908: 02
#TIL00: "71'1440:1, 71'1439:10000"
#VOLUME: ""
#HISPEED 00
#MEASUREHS 00
#01016:0016
#01312:14
#0141a:14
#01514:14
#01618:14
#01712:14
#02112:14
#0221a:14
#02210:41
#02312:14
#0241a:14
#02514:14
#02914:14
#03018:14
#03112:14
#0321a:14
#03314:14
#03310:41
#04518:0016
#04512:26
#04510:41
#04718:16
#04712:0016
#04912:1616
#05018:1616
#05112:1616
#05312:0016
#05512:16
#05518:0016
#05718:16
#05712:0016
#05912:1616
#06412:14
#05818:1616
#05810:00410000
#06512:14
#0661a:14
#0671a:14
#06814:14
#06914:14
#0341f:11
#00918:26
#05218:26
#0701a:24
#07012:24
#0441f:00210000
#01210:41
#00310:41
#01056:0026
#00958:56
#0013a0:14
#0023a0:24
#003320:14
#004320:24
#005380:14
#006380:24
#007340:14
#008340:24
#009380:16
#010360:0056
#012380:26
#0183a0:14
#020380:24
#026380:14
#0283a0:24
#0343a0:14
#0353a0:24
#036340:14
#037340:24
#038380:14
#039380:24
#040320:14
#041320:24
#0423a0:14
#043380:54
#044380:00240000
#046320:1626
#048380:1626
#052380:16
#053380:26
#054380:1626
#056320:1626
#060380:16
#062380:26
#0719d0:000000000000000000000000000000000000000000000000000000000000000000000000000000000000000000000000000000000000000000000000000000000000000000000000000000000000000000000000000000000000000000000000000000000000000000000000000000000000000000000000000000000000000000000000000000000000000000000000000000000000000000000000000000000000000000000000000000000000000000000000000000000000000000000000000000000000000000000000000000000000000000000000000000000000000000000000000000000000000000000000000000000000000000000000000000000000000000000000000000000000000000000000000000000000000000000000000000000000000000000000000000000000000000000000000000000000000000000000000000000000000000000000000000000000000000000000000000000000000000000000000000000000000000000000000000000000000000000000000000000000000000000000000000000000000000000000000000000000000000000000000000000000000000000000000000000000000000000000000000000000000000000000000000000000000000000000000000000000000000000000000000000000000000000000000000000000000000000000000000000000000000000000000000000000000000000000000000000000000000000000000000000000000000000000000000000000000000000000000000000000000000000000000000000000000000000000000000000000000000000000000000000000000000000000000000000000000000000000000000000000000000000000000000000000000000000000000000000000000000000000000000000000000000000000000000000000000000000000000000000000000000000000000000000000000000000000000000000000000000000000000000000000000000000000000000000000000000000000000000000000000000000000000000000000000000000000000000000000000000000000000000000000000000000000000000000000000000000000000000000000000000000000000000000000000000000000000000000000000000000000000000000000000000000000000000000000000000000000000000000000000000000000000000000000000000000000000000000000000000000000000000000000000000000000000000000000000000000000000000000000000000000000000000000000000000000000000000000000000000000000000000000000000000000000000000000000000000000000000000000000000000000000000000000000000000000000000000000000000000000000000000000000000000000000000000000000000000000000000000000000000000000000000000000000000000000000000000000000000000000000000000000000000000000000000000000000000000000000000000000000000000000000000000000000000000000000000000000000000000000000000000000000000000000000000000000000000000000000000000000000000000000000000000000000000000000000000000000000000000000000000000000000000000000000000000000000000000000000000000000000000000000000000000000000000000000000000000000000000000000000000000000000000000000000000000000000000000000000000000000000000000000000000000000000000000000000000000000000000000000000000000000000000000000000000000000000000000000000000000000000000000000000000000000000000000000000000000000000000000000000000000000000000000000000000000000000000000000000000000000000000000000000000000000000000000000000000000000000000000000000112100000000000000000000000000000000000000000000000000000000000000000000000000000000000000000000000000000000000000000000000000000000000000000000000000000000000000000000000000000000000000000000000000000000000000000000000000000000000000000000000000000000000000000000000000000000000000000000000000000000000000000000000000000000000000000000000000000000000000000000000000000000000000000000000000000000000000000000000000000000000000000000000000000000000000000000000000000000000000000000000000000000000000000000000000000000000000000000000000000000000000000000000000000000000000000000000000000000000000000000000000000000000000000000000000000000000000000000000000000000000000000000000000000000000000000000000000000000000000000000000000000000000000000000000000000000000000000000000000000000000000000000000000000000000000000000000000000000000000000000000000000000000000000000000000000000000000000000000000000000000000000000000000000000000000000000000000000000000000000000
