This file was generated by Ched 2.7.0.0.
#TITLE ""
#ARTIST ""
#DESIGNER ""
#DIFFICULTY 0
#PLAYLEVEL
#SONGID ""
#WAVE ""
#WAVEOFFSET 0
#JACKET ""
#REQUEST "ticks_per_beat 480"
#00002: 4
#BPM01: 153
#BPM02: 175
#00008: 01
#00908: 02
#TIL00: "71'1440:1, 71'1439:10000"
#VOLUME: ""
#HISPEED 00
#MEASUREHS 00
#01112:0013
#01115:00130013
#01118:0000001300000000
#0111b:0013000000000000
#02318:0000000013000013
#02315:0000000000130000
#03712:00130000
#03718:0000001300000000
#0371b:0000000000130000
#03715:0013
#00218:13
#00518:13
#00118:13
#0011b:0013
#00715:13
#01518:00130013
#01515:0000001300000000
#0151b:0013
#01512:0013000000000000
#02415:13000013
#02412:0000001300000000
#02418:00000023
#02413:0033
#02414:0000000000000033
#02419:0000000000000033
#03317:00000014
#0331a:0014
#03312:13
#03318:0000000000340000
#03310:41
#03614:0000001400000000
#03612:0000000000000014
#03618:00140000
#03617:0000000000140000
#0361a:0000000000000014
#0451a:0000000000000014
#04512:1400000000000024
#04518:0000002400000000
#04515:0000000000240000
#04510:41
#0441a:00000014
#0441f:00210000
#04418:00550000
#04413:00650000
#05818:0000130000140000
#05815:0013
#05812:0000000000000013
#0581b:0000000000000023
#05810:00410000
#0591b:0000000000000013
#05912:0000000000000013
#05915:0013
#05918:0023
#03118:0013
#03119:0000000000330000
#02115:0013
#02118:0000000000130000
#03815:0000000000130000
#03812:0000331300000000
#03818:2400000000130000
#0381b:0000331300000000
#03814:24
#0421b:13
#04212:23
#05115:0013
#05118:0000000000130000
#05012:0000000000000013
#05018:0000130000130000
#05015:0013
#0501b:0000000000000013
#06018:00000013
#06015:00000013
#00415:13
#00315:13
#00312:0013
#00310:41
#00812:13
#0081b:13
#00818:0053
#00815:0053
#01312:00130000
#01318:0000001300000000
#0131b:0013000000000000
#01315:0013
#0171b:00130000
#01715:0000001300000000
#01718:0013
#01712:0013000000000000
#01812:0000000000000013
#0181b:0000000000000013
#01814:24
#01818:24
#02015:00140000
#02014:0000000000140000
#02018:00000024
#0201a:24
#02019:0000002400000000
#02217:00140000
#02218:0000000000140000
#02212:14
#02213:0000001400000000
#02214:00000014
#02210:41
#02915:0013
#02918:0000000000130000
#02814:00140000
#02812:0000000000140000
#02816:00000024
#0281a:24
#02818:0000002400000000
#03018:00140000
#0301a:0000000000140000
#03012:14
#03014:0000001400000000
#03016:00000014
#03212:13
#03218:0000130000000023
#0321b:0013
#03215:0000002300001300
#03512:0014
#03515:00000014
#04118:00130013
#0411b:0013
#04115:00230023
#04112:0023
#04612:0014
#04616:00000014
#04712:0000000000000014
#0471a:1400000000000024
#04714:0000002400000000
#04717:0000000000240000
#04815:00000014
#04812:0014
#04912:1400000000000024
#0491a:0000000000000014
#04918:0000002400000000
#04915:0000000000240000
#05215:0000001300000000
#05218:0000001300000000
#0521a:24
#05212:24
#05312:0000000000000015
#0531a:14
#05313:0000002500000000
#05316:0000000000250000
#05319:0000000000000025
#0541a:0014
#05416:00000014
#05617:00000014
#0561a:0024
#0571a:14
#05712:0000000000000015
#05713:0000002500000000
#05716:0000000000250000
#05719:0000000000000025
#05519:0000000000000015
#05512:1400000000000025
#05518:0000002500000000
#05515:0000000000250000
#06315:0014
#0631a:0024240000000000
#06312:00000000000000000000003434340000
#06313:0000000000340000
#06314:00000000000000000034000000000000
#06512:0014
#06515:00000014
#06514:00140000
#06518:0000001400000000
#0651a:0014000000000000
#06712:00140000
#06718:0000001400000000
#0671a:0014000000000000
#06714:0014
#0691a:0014
#06917:00000014
#06918:00140000
#06914:0000001400000000
#06912:0014000000000000
#0391b:0013
#03912:0023
#03915:00000033
#03918:00000033
#01418:14
#01412:00260000
#06818:14
#06812:00230063
#06815:00000000000000630063000000002600
#06813:00000000006300000000006300000000
#06814:0000006300630000
#06816:0063
#04018:00130013
#04015:00230013
#0401b:0013
#04012:0013
#0341f:11
#03412:0000000000000024
#03414:00240000
#03415:0000000000240000
#03418:0000002400000000
#0341a:0000000000000024
#06212:2424000000000000
#06218:0000002424000000
#06214:0000000000002424
#0701a:24
#00614:22
#00616:00220000
#00618:0022
#0061a:00000022
#00918:24
#00914:24
#01018:00260000
#01218:00260000
#01210:41
#01612:00260000
#0641a:00240000
#06415:00240000
#0661a:00240000
#06615:00240000
#04318:5300000054000082
#04315:63
#04314:0064
#04316:0000000000000082
#01152:0063
#01155:00000063
#03452:0000000000000014
#0345a:1400000000000014
#00258:53
#00558:63
#0055b:0013
#00158:53
#0015b:0023
#00755:63
#00752:0013
#02455:63000063
#02458:00000063
#02452:0000002300000000
#0255a:0014
#02552:0014
#03357:00000024
#0335a:0054
#03352:13
#03652:1400000000000014
#0365a:0000000000000014
#04356:0000000000000022
#04358:2300000054000022
#04354:0054
#04355:23
#04453:00350000
#04458:00450000
#04552:5400000000000014
#0455a:0000000000000014
#05858:0000000000140000
#0585b:0000000000000053
#05852:0000000000000063
#05958:0053
#0595b:0000000000000053
#05952:0000000000000063
#05955:0063
#03158:0053
#03855:0000000000230000
#03854:64
#03852:0000006300000034
#03858:5400000000230000
#0385b:0000005300000000
#0385a:0000000000000044
#0425b:63
#04252:63
#05052:0000000000000053
#0505b:0000000000000053
#06058:00000023
#06055:00000023
#00455:63
#00355:63
#00352:0023
#00852:63
#0085b:53
#0105a:14
#01052:1400000000000014
#00958:54
#00954:64
#0155b:0053
#01558:00000053
#01852:0000000000000023
#01854:54
#0185b:0000000000000023
#01858:64
#02058:00000054
#02856:00000054
#02958:0000000000130000
#0325b:0013
#03552:0064
#03555:00000064
#03952:0063
#0395b:0053
#04752:0000000000000014
#0475a:6400000000000014
#04855:00000024
#04852:0064
#04952:6400000000000014
#0495a:0000000000000014
#0525a:64
#05252:54
#05255:0000002300000000
#05258:0000002300000000
#05352:0000000000000015
#0535a:64
#05359:0000000000000015
#05657:00000024
#0565a:0054
#0575a:54
#05752:0000000000000015
#05759:0000000000000015
#05559:0000000000000015
#05552:5400000000000015
#06452:1400000000000014
#06457:0000000000000014
#06355:0064
#06552:0064
#06555:00000064
#0695a:0054
#06957:00000054
#06652:1400000000000014
#06657:0000000000000014
#06855:0000000000000016
#01758:0013
#0145a:0000000000000014
#0165a:0000000000000014
#0165b:13
#01252:1300000000000014
#01355:0013
#06754:0014
#04055:13630063
#04058:13530053
#0405b:0023
#04052:0023
#0415b:13
#04152:13
#0705a:14
#02254:00000064
#03056:00000064
#001380:13
#0013b0:0053
#002380:33
#0023b0:0023
#003350:13
#003320:0053
#004350:33
#004320:0023
#005380:13
#0053b0:0023
#007350:13
#007320:0023
#0083b0:13
#008380:0023
#008321:13
#008351:0023
#009381:14
#0103a1:24
#009340:14
#010320:24
#010350:0014
#010320:0000000000540024
#011320:0013
#011350:00000033
#012320:23
#012350:0014
#012320:0000000000540024
#014370:0014
#0143a0:0000000000540024
#0153b0:0013
#015380:00000033
#0163b0:23
#016370:0014
#0163a0:0000000000540024
#018340:14
#018320:0000000000000053
#019340:00000024
#018381:14
#0183b1:0000000000000053
#019381:00000024
#020381:00000014
#0213a1:00240000
#022341:00000014
#023321:00240000
#024351:13000033
#024321:0000003300000000
#024331:0033
#024341:0000000000000033
#025321:0024
#024380:00000013
#024390:0000000000000033
#0253a0:0024
#0263a0:14000000545454545400000054545454
#026390:0000000000000000005400540054005400000000000000000054005400540054
#0273a0:54000000545454545400000024000000
#027390:0000000000000000005400540054005400000000000000000000000000000000
#026321:14000000545454545400000054545454
#026331:0000000000000000005400540054005400000000000000000054005400540054
#027321:54000000545454545400000024000000
#027331:0000000000000000005400540054005400000000000000000000000000000000
#028361:00000014
#0293a1:00240000
#030361:00000014
#031321:00240000
#031381:0013
#031391:0000000000330000
#0313b1:0000000000000023
#0333a1:0014
#033381:0000000000340000
#033371:00000054
#0343a1:24
#035321:0014
#035351:00000034
#036321:24
#038341:14
#038321:0000333300000024
#038351:0000000000330000
#038380:1400000000330000
#0383b0:0000333300000000
#0383a0:0000000000000024
#039320:0013
#039350:00000033
#040350:23
#0393b1:0013
#039381:00000033
#040381:23
#040381:00130033
#0403b1:0053
#0413b1:23
#040350:00130033
#040320:0053
#041320:23
#0423b0:13
#043380:23
#042321:13
#043351:23
#045321:14
#045341:00240000
#0473a1:14
#047381:00240000
#048321:0014
#048351:00000054
#049321:34
#049341:00240000
#050321:0000000000000013
#051351:00230000
#0503b0:0000000000000013
#051380:00230000
#052320:14000024
#052350:0000005300000000
#0523a1:14000024
#052381:0000005300000000
#0533a1:14
#053381:00240000
#055321:14
#055341:00240000
#0563a1:0014
#056371:00000054
#0573a1:34
#057381:00240000
#058321:0000000000000013
#059351:00230000
#0583b0:0000000000000013
#059380:00230000
#059380:0013
#0593b0:0000000000000033
#060380:00000053
#0613a0:00000024
#059351:0013
#059321:0000000000000033
#060351:00000053
#061321:00000024
#063351:0014
#063341:00000000000000000034000000000000
#063331:0000000000340000
#063321:00000000000000000000003434343400
#064321:24
#0643a1:0014
#064371:0000000000540024
#064350:0014
#064320:0000000000540024
#065320:0014
#065350:00000034
#066320:24
#0663a0:0014
#066370:0000000000540024
#066351:0014
#066321:0000000000540024
#0693a1:0014
#069371:00000034
#0703a1:24
#043950:13
#043940:0054
#043960:0000000000000052
#044930:000000000000000000000000000000000000000000000000000000000000000000000000000000000000000000000000000000000000000000000000000000000000000000000000000000000000000000000000000000000000000000000000000000000000000000000000000000000000000000000000000000000000000000000000000000000000000000000000000000000000000000000000000000000000000000000000000000000000000000000000000000000000000000000000000000000000000000000000000000000000000000000000000000000000000000000000000000000000000000000000000000000000000000000000000000000000000000000000000000000000000000000000000000000000000000000000000000000000000000000000000000000000000000000000000000000000000000000000000000000000000000000000000000000000000000000000000000000000000000000000000000000000000000000000000000000000000000000000000000000000000000000000000000000000000000000000000000000000000000000000000000000000000000000000000000000000000000000000000000000000000000000000000000000000000000000000000000000000000055555555250000000000000000000000000000000000000000000000000000000000000000000000000000000000000000000000000000000000000000000000000000000000000000000000000000000000000000000000000000000000000000000000000000000000000000000000000000000000000000000000000000000000000000000000000000000000000000000000000000000000000000000000000000000000000000000000000000000000000000000000000000000000000000000000000000000000000000000000000000000000000000000000000000000000000000000000000000000000000000000000000000000000000000000000000000000000000000000000000000000000000000000000000000000000000000000000000000000000000000000000000000000000000000000000000000000000000000000000000000000000000000000000000000000000000000000000000000000000000000000000000000000000000000000000000000000000000000000000000000000000000000000000000000000000000000000000000000000000000000000000000000000000000000000000000000000000000000000000000000000000000000000000000000000000000000000000000000000000000000000000000000000000000000000000000000000000000000000000000000000000000000000000000000000000000000000000000000000000000000000000000000000000000000000000000000000000000000000000000000000000000000000000000000000000000000000000000000000000000000000000000000000000000000000000000000000000000000000000000000000000000000000000000000000000000000000000000000000000000000000000000000000000000000000000000000000000000000000000000000000000000000000000000000000000000000000000000000000000000000000000000000000000000000000000000000000000000000000000000000000000000000000000000000000000000000000000000000000000000000000000000000000000000000000000000000000000000000000000000000000000000000000000000000000000000000000000000000000000000000000000000000000000000000000000000000000000000000000000000000000000000000000000000000000000000000000000000000000000000000000000000000000000000000000000000000000000000000000000000000000000000000000000000000000000000000000000000000000000000000000000000000000000000000000000000000000000000000000000000000000000000000000000000000000000000000000000000000000000000000000000000000000000000000000000000000000000000000000000000000000000000000000000000000000000000000000000000000000000000000000000000000000000000000000000000000000000000000000000000000000000000000000000000000000000000000000000000000000000000000000000000000000000000000000000000000000000000000000000000000000000000000000000000000000000000000000000000000000000000000000000000000000000000000000000000000000000000000000000000000000000000000000000000000000000000000000000000000000000000000000000000000000000000000000000000000000000000000000000000000000000000000000000000000000000000000000000000000000000000000000000000000000000000000000000000000000000000000000000000000000000000000000000000000000000000000000000000000000000000000000000000000000000000000000000000000000000000000000000000000000000000000000000000000000000000000000000000000000000000000000000
#043981:1300000054000052
#044981:000000000000000000000000000000000000000000000000000000000000000000000000000000000000000000000000000000000000000000000000000000000000000000000000000000000000000000000000000000000000000000000000000000000000000000000000000000000000000000000000000000000000000000000000000000000000000000000000000000000000000000000000000000000000000000000000000000000000000000000000000000000000000000000000000000000000000000000000000000000000000000000000000000000000000000000000000000000000000000000000000000000000000000000000000000000000000000000000000000000000000000000000000000000000000000000000000000000000000000000000000000000000000000000000000000000000000000000000000000000000000000000000000000000000000000000000000000000000000000000000000000000000000000000000000000000000000000000000000000000000000000000000000000000000000000000000000000000000000000000000000000000000000000000000000000000000000000000000000000000000000000000000000000000000000000000000000000000000000055555555250000000000000000000000000000000000000000000000000000000000000000000000000000000000000000000000000000000000000000000000000000000000000000000000000000000000000000000000000000000000000000000000000000000000000000000000000000000000000000000000000000000000000000000000000000000000000000000000000000000000000000000000000000000000000000000000000000000000000000000000000000000000000000000000000000000000000000000000000000000000000000000000000000000000000000000000000000000000000000000000000000000000000000000000000000000000000000000000000000000000000000000000000000000000000000000000000000000000000000000000000000000000000000000000000000000000000000000000000000000000000000000000000000000000000000000000000000000000000000000000000000000000000000000000000000000000000000000000000000000000000000000000000000000000000000000000000000000000000000000000000000000000000000000000000000000000000000000000000000000000000000000000000000000000000000000000000000000000000000000000000000000000000000000000000000000000000000000000000000000000000000000000000000000000000000000000000000000000000000000000000000000000000000000000000000000000000000000000000000000000000000000000000000000000000000000000000000000000000000000000000000000000000000000000000000000000000000000000000000000000000000000000000000000000000000000000000000000000000000000000000000000000000000000000000000000000000000000000000000000000000000000000000000000000000000000000000000000000000000000000000000000000000000000000000000000000000000000000000000000000000000000000000000000000000000000000000000000000000000000000000000000000000000000000000000000000000000000000000000000000000000000000000000000000000000000000000000000000000000000000000000000000000000000000000000000000000000000000000000000000000000000000000000000000000000000000000000000000000000000000000000000000000000000000000000000000000000000000000000000000000000000000000000000000000000000000000000000000000000000000000000000000000000000000000000000000000000000000000000000000000000000000000000000000000000000000000000000000000000000000000000000000000000000000000000000000000000000000000000000000000000000000000000000000000000000000000000000000000000000000000000000000000000000000000000000000000000000000000000000000000000000000000000000000000000000000000000000000000000000000000000000000000000000000000000000000000000000000000000000000000000000000000000000000000000000000000000000000000000000000000000000000000000000000000000000000000000000000000000000000000000000000000000000000000000000000000000000000000000000000000000000000000000000000000000000000000000000000000000000000000000000000000000000000000000000000000000000000000000000000000000000000000000000000000000000000000000000000000000000000000000000000000000000000000000000000000000000000000000000000000000000000000000000000000000000000000000000000000000000000000000000000000000000000000000000000000000000000000000000000
#068921:000000000000000000000000000000000000000000000000000000000000000000000000000000000000000000000000000000000000000000000000000000000000000000000000000000000000000000000000000000000000000000000000000000000000000000000000000000000000000000000000000000000000000000000000000000000000000000000000000000000000000000000000000000000000000000000000000000000000000000000000000000000000000000000000000000000000000000000000000000000000000000000000000000000000000000000000000000000000000000000000000000000000000000000000000000000000000000000000000000000000000000000000000000000000000000000000000000000000000000000000000000000000000000000000000000000000000000000000000000000000000000000000000000000000000000000000000000000000000000000000000000000000000000000000000000000000000000000000000000000000000000000000000000000000000000000000000000000000000000000000000000000000000000000000000000000000000000000000000000000000000000000000000000000000000000000000000000000000000000000000130000000000000000000000000000000000000000000000000000000000000000000000000000000000000000000000000000000000000000000000000000000000000000000000000000000000000000000000000000000000000000000000000000000000000000000000000000000000000000000000000000000000000000000000000000000000000000000000000000000000000000000000000000000000000000000000000000000000000000000000000000000000000000000000000000000000000000000000000000000000000000000000000000000000000000000000000000000000000000000000000000000000000000000000000000000000000000000000000000000000000000000000000000000000000000000000000000000000000000000000000000000000000000000000000000000000000000000000000000000000000000000000000000000000000000000000000000000000000000000000000000000000000000000000000000000000000000000000000000000000000000000000000000000000000000000000000000000000000000000000000000000000000000000000000000000000000000000000000000000000000000000000000000000000000000000000000000000000000000000000000000000000000000000000000000000000000000000000000000000000000000000000000000000000000000000000000000000000000000000000000000000000000000000000000000000000000000000000000000000000000000000000000000000000000000000000000000000000000000000000000000000000000000000000000000000000000000000000000000000000000000000000000000000000000000000000000000000000000000000000000000000000000000000000000000000000000000000000000000000000000000000000000000000000000000000000000000000000000000000000000000000000000000000000000000000000000000000000000000000000000000000000000000000000000000000000000000000000000000000000000000000000000000000000000000000000000000000000000000000000000000000000000000000000000000000000000000000000000000000000000000000000000000000000000000000000000000000000000000000000000000000000000000000000000000000000000000000000000000000000000000000000000000000000000000000000000000000000000000000000000000000000000000000000000000000000000000000000000000535353230000000000000000000000000000000000000000000000000000000000000000000000000000000000000000000000000000000000000000000000000000000000000000000000000000000000000000000000000000000000000000000000000000000000000000000000000000000000000000000000000000000000000000000000000000000000000000000000000000000000000000000000000000000000000000000000000000000000000000000000000000000000000000000000000000000000000000000000000000000000000000000000000000000000000000000000000000000000000000000000000000000000000000000000000000000000000000000000000000000000000000000000000000000000000000000000000000000000000000000000000000000000000000000000000000000000000000000000000000000000000000000000000000000000000000000000000000000000000000000000000000000000000000000000000000000000000000000000000000000000000000000000000000000000000000000000000000000000000000000000000000000000000000000000000000000000000000000000000000000000000000000000000000000000000000000000000000000000000000000000
#068961:000000000000000000000000000000000000000000000000000000000000000000000000000000000000000000000000000000000000000000000000000000000000000000000000000000000000000000000000000000000000000000000000000000000000000000000000000000000000000000000000000000000000000000000000000000000000000000000000000000000000000000000000000000000000000000000000000000000000000000000000000000000000000000000000000000000000000000000000000000000000000000000000000000000000000000000000000000000000000000000000000000000000000000000000000000000000000000000000000000000000000000000000000000000000000000000000000000000000000000000000000000000000000000000000000000000000000000000000000000000000000000000000000000000000000000000000000000000000000000000000000000000000000000000000000000000000000000000000000000000000000000000000000000000000000000000000000000000000000000000000000000000000000000000000000000000000000000000000000000000000000000000000000000000000000000000000000000000000000000000000000000000000000000000000000000000000000000000000000000000000000000000000000000000000000000000000000000000000000000000000000000000000000000000000000000000000000000000000000000000000000000000000000000000000000000000000000000000000000000000000000000000000000000000000000000000000000000000000000000000000000000000000000000000000000000000000000000000000000000000000000000000000000000000000000000000000000000000000000000000000000000000000000000000000000000000000000000000000000000000000000000000000000000000000000000000000000000000000000000000000000000000000000000000000000000000000000000000000000000000000000000000000000000000000000000000000000000000000000000000000000000000000000000000000000000000000000000000000000000000000000000000000000000000000000000000000000000000000000000000000000000000000000000000000000000000000000000000000000000000000000000000000000000000000000000000000000000000000000000000000000000000000000000000000000000000000000000000000000000535353000000000000000000000000000000000000000000000000000000000000000000000000000000000000000000000000000000000000000000000000000000000000000000000000000000000000000000000000000000000000000000000000000000000000000000000000000000000000000000000000000000000000000000000000000000000000000000000000000000000000000000000000000000000000000000000000000000000000000000000000000000000000000000000000000000000000000000000000000000000000000000000000000000000000000000000000000000000000000000000000000000000000000000000000000000000000000000000000000000000000000000000000000000000000000000000000000000000000000000000000000000000000000000000000000000000000000000000000000000000000000000000000000000000000000000000000000000000000000000000000000000000000000000000000000000000000000000000000000000000000000000000000000000000000000000000000000000000000000000000000000000000000000000000000000000000000000000000000000000000000000000000000000000000000000000000000000000000000000000000000000000000000000000000000000000000000000000000000000000000000000000000000000000000000000000000000000000000000000000000000000000000000000000000000000000000000000000000000000000000000000000000000000000000000000000000000000000000000000000000000000000000000000000000000000000000000000000000000000000000000000000000000000000000000000000000000000000000000000000000000000000000000000000000000000000000000000000000000000000000000000000000000000000000000000000000000000000000000000000000000000000000000000000000000000000000000000000000000000000000000000000000000000000000000000000000000000000000000000000000000000000000000000000000000000000000000000000000000000000000000000000000000000000000000000000000000000000000000000000000000000000000000000000000000000000000000000000000000000000000000000000000000000000000000000000000000000000000000000000000000000000000000000000000000000000000000000000000000000000000000000000000000000000000000000000000000000000000000000000000000
#0719d1:000000000000000000000000000000000000000000000000000000000000000000000000000000000000000000000000000000000000000000000000000000000000000000000000000000000000000000000000000000000000000000000000000000000000000000000000000000000000000000000000000000000000000000000000000000000000000000000000000000000000000000000000000000000000000000000000000000000000000000000000000000000000000000000000000000000000000000000000000000000000000000000000000000000000000000000000000000000000000000000000000000000000000000000000000000000000000000000000000000000000000000000000000000000000000000000000000000000000000000000000000000000000000000000000000000000000000000000000000000000000000000000000000000000000000000000000000000000000000000000000000000000000000000000000000000000000000000000000000000000000000000000000000000000000000000000000000000000000000000000000000000000000000000000000000000000000000000000000000000000000000000000000000000000000000000000000000000000000000000000000000000000000000000000000000000000000000000000000000000000000000000000000000000000000000000000000000000000000000000000000000000000000000000000000000000000000000000000000000000000000000000000000000000000000000000000000000000000000000000000000000000000000000000000000000000000000000000000000000000000000000000000000000000000000000000000000000000000000000000000000000000000000000000000000000000000000000000000000000000000000000000000000000000000000000000000000000000000000000000000000000000000000000000000000000000000000000000000000000000000000000000000000000000000000000000000000000000000000000000000000000000000000000000000000000000000000000000000000000000000000000000000000000000000000000000000000000000000000000000000000000000000000000000000000000000000000000000000000000000000000000000000000000000000000000000000000000000000000000000000000000000000000000000000000000000000000000000000000000000000000000000000000000000000000000000000000000000000000000000000000000000000000000000000000000000000000000000000000000000000000000000000000000000000000000000000000000000000000000000000000000000000000000000000000000000000000000000000000000000000000000000000000000000000000000000000000000000000000000000000000000000000000000000000000000000000000000000000000000000000000000000000000000000000000000000000000000000000000000000000000000000000000000000000000000000000000000000000000000000000000000000000000000000000000000000000000000000000000000000000000000000000000000000000000000000000000000000000000000000000000000000000000000000000000000000000000000000000000000000000000000000000000000000000000000000000000000000000000000000000000000000000000000000000000000000000000000000000000000000000000000000000000000000000000000000000000000000000000000000000000000000000000000000000000000000000000000000000000000000000000000000000000000000000000000000000000000000000000000000000000000000000000000000000000000000000000000000000000000000000000112100000000000000000000000000000000000000000000000000000000000000000000000000000000000000000000000000000000000000000000000000000000000000000000000000000000000000000000000000000000000000000000000000000000000000000000000000000000000000000000000000000000000000000000000000000000000000000000000000000000000000000000000000000000000000000000000000000000000000000000000000000000000000000000000000000000000000000000000000000000000000000000000000000000000000000000000000000000000000000000000000000000000000000000000000000000000000000000000000000000000000000000000000000000000000000000000000000000000000000000000000000000000000000000000000000000000000000000000000000000000000000000000000000000000000000000000000000000000000000000000000000000000000000000000000000000000000000000000000000000000000000000000000000000000000000000000000000000000000000000000000000000000000000000000000000000000000000000000000000000000000000000000000000000000000000000000000000000000000000000
