This file was generated by Ched 2.7.0.0.
#TITLE ""
#ARTIST ""
#DESIGNER ""
#DIFFICULTY 0
#PLAYLEVEL
#SONGID ""
#WAVE ""
#WAVEOFFSET 0
#JACKET ""
#REQUEST "ticks_per_beat 480"
#00002: 4
#BPM01: 192
#00008: 01
#TIL00: ""
#VOLUME: ""
#HISPEED 00
#MEASUREHS 00
#07318:0016
#07312:26
#0731f:21
#0051a:14
#00712:14
#03718:14
#04014:14
#04014:14
#04918:14
#05018:14
#05114:14
#05214:14
#0531a:14
#0541a:14
#05512:14
#06518:14
#06614:14
#06718:14
#06814:14
#0691a:14
#07012:14
#08418:14
#08514:14
#0861a:14
#08712:14
#0061a:14
#01212:0000000000000014
#01014:0000000000000014
#00812:0000000000000014
#01414:0000000000000014
#01912:16
#01918:0016
#02118:1616
#01712:0016
#01718:26
#01710:41
#02212:1616
#02318:16
#02312:0016
#02718:16
#02712:0016
#02518:0016
#02512:26
#02510:41
#02912:1616
#03018:1616
#03314:0016
#03310:41
#03814:14
#03918:14
#0411a:14
#04110:41
#04412:14
#04412:14
#04212:14
#0431a:14
#04614:14
#04614:14
#04518:14
#0471a:14
#04812:14
#04810:0000000000000041
#05612:14
#0561f:0000000000000011
#07412:16
#07418:0016
#07512:16
#07518:0016
#07510:41
#07612:16
#07618:0016
#07818:0016
#07912:26
#01252:0000000000000054
#01054:0000000000000064
#00852:0000000000000054
#01454:0000000000000064
#03354:0066
#001380:14
#002380:24
#003340:14
#004340:24
#008320:1400000000000034
#010340:0000000000000034
#012320:0000000000000034
#014340:0000000000000034
#016320:0024
#018380:1626
#020320:1626
#024380:1626
#026320:1626
#028380:1626
#031320:16
#031340:00000036
#032320:00000036
#033340:0036
#036320:24
#057380:14
#058380:24
#059340:14
#060340:24
#0613a0:14
#0623a0:24
#063320:14
#064320:24
#0713a0:1400000000000034
#072380:0024
#077320:16
#078320:26
#079320:16
#080320:0036
#081340:36
#083320:26
#088380:1400000000000024
