This file was generated by Ched 2.7.0.0.
#TITLE ""
#ARTIST ""
#DESIGNER ""
#DIFFICULTY 0
#PLAYLEVEL
#SONGID ""
#WAVE ""
#WAVEOFFSET 0
#JACKET ""
#REQUEST "ticks_per_beat 480"
#00002: 4
#BPM01: 192
#00008: 01
#TIL00: ""
#VOLUME: ""
#HISPEED 00
#MEASUREHS 00
#0561f:0000000000000011
#05612:0014000000150026
#05616:00141500
#05619:0000001500000000
#05617:13
#05618:0000000000000026
#01316:0000000000000014
#0131b:00001313
#0131a:00130000
#01419:00000013
#0141b:13130000
#0141a:0013
#01418:0000000000000016
#01512:00001313
#01516:00000000000000000000001400000000
#01513:00130000
#01613:13
#01614:00130000
#01616:0000000000000014
#01618:0026
#01612:0026
#07012:5313
#07014:00130013
#0701b:13
#0701a:0053000000000053
#07019:00530053
#07018:0000005300530000
#07017:0053
#06814:13000013
#06812:0013
#06813:00130000
#06818:5655545352535455
#06715:00000013
#06716:0013
#06714:00130000
#06718:16
#06712:56
#0671b:0000005300530000
#0671a:00540054
#06719:0055000000000055
#0671c:0052
#08214:0014001400140014001400140014001400140014001400140014001400140014
#08213:00140014001400140014001400140014001400140014001400140014001400140014001400140014001400140014001400140014001400140014001400140014
#08212:14141414141414141414141414141414
#08217:00000013
#08219:0000000000130000
#0821b:00131300
#08218:0013000000000000
#08812:0024000000002616
#08818:0000240000001626
#08816:14
#08813:0000000000240000
#08814:0000002400000000
#08819:0024
#0871a:2400002400240014
#08712:2400001400000024
#08716:00001424
#08718:0023000000000000
#08715:00230000
#08615:0000001300130013
#0861b:0013000013000000
#08612:0013
#08618:00130013
#08512:0013000013000013
#0851b:0000000013000013
#08515:00130013
#08518:0000001300130000
#08418:0000001300001300
#08415:1300130000130000
#0841b:0013000013000013
#08412:0000000013000023
#0831b:1300000013000013
#08312:0000000013000013
#08318:0013001300001300
#08315:0000130000130000
#07118:0000000000000016
#07112:2300140015000016
#07119:0000000000150000
#0711a:0000001400000000
#0711b:5313000000000000
#06418:0013001400150016
#06415:00130000
#06414:0014
#06413:00000015
#0691b:0013
#06919:00130013
#06912:13
#06913:0053000000000053
#06914:00530053
#06915:0000005300530000
#06916:0053
#06918:56
#06619:13000013
#0661b:0013
#0661a:00130000
#06612:56
#06613:0055000000000055
#06614:00540054
#06615:0000005300530000
#06616:0052
#06518:26000013
#06512:1655545352535455
#06517:0013
#06519:00130000
#08013:0014001400140014001400140014001400000000000000000000000000000000
#08012:14141414141414142400000000000000
#0801a:0000000024000000000000000000000024343434343434343434343434343434
#08016:00240000
#07913:0000000000000000000000000000000000000000000000000000000000140014
#07912:00000000240000000000000000001414
#07919:0000000000000000001400140014001400140014001400140014001400000000
#0791a:00000000141414141414141414142400
#07914:14
#07916:0000002400240000
#07918:0024000000000000
#0361b:0013000000000000
#03618:00130013
#03615:0000001300130000
#03612:0013
#0351b:13131313131313131313131313130000
#0351a:0013001300130013001300130013001300130013001300130013001300000000
#03512:13131313131313131313131313130000
#03513:0013001300130013001300130013001300130013001300130013001300000000
#0341b:13131313131313131313131313131313
#0341a:0013001300130013001300130013001300130013001300130013001300130013
#03412:13131313131313131313131313131313
#03413:0013001300130013001300130013001300130013001300130013001300130013
#08114:0014001400140014001400140014001400140014001400140014001400140014
#08113:00140014001400140014001400140014001400140014001400140014001400140014001400140014001400140014001400140014001400140014001400140014
#08112:24141414141414141414141414141414
#08118:0000000000000013
#0811b:00001313
#08119:00130000
#0781b:0013
#07815:00000013
#07818:0000000000000014
#07812:0000001300000000
#07718:16
#0771a:0000000000000014
#07712:2600000000001414
#0761a:0000000024000014
#07616:00140000000014000000001400000000
#07612:00141400
#07512:1400000000140014
#0751a:1400001400000014
#07516:00001414
#07514:00140000
#07518:00000014000000000000000000000000
#07510:41
#07416:00140000
#07412:0014140000000000
#07418:00000014
#07414:0000000000000014
#07212:0000000000000014
#07218:00000013
#07215:0000000000130000
#06212:0000001300130013
#0621b:0013001300000013
#06217:00000013
#06216:00130000
#0611b:0000000000001313
#06119:00000000000000000014001400140014001400140014001400140014001400140000000000000000000000000000000000000000000000000000000000000000
#0611a:0000000000140014001400140014001400000000000000000000000000000000
#06118:00001414141414140000000000000000
#06113:00000000000000000014001400140014001400140014001400140014001400140000000000000000000000000000000000000000000000000000000000000000
#06112:0000000000140014001400140014001400000000000000001300000013000000
#06114:00001414141414140000000000000000
#06016:00130000
#06017:00000000000000000013000000000000
#0601b:0013001300000000
#0601a:0000000000000024
#06012:00000024
#05912:0000130000000013
#05917:13
#0591b:0000000000130000
#05915:0000001300000000
#05918:0013
#05816:00000000000000000013000000000000
#05812:0013001300000013
#05817:00130013
#0551b:0000000000000013
#05512:0000000000000013
#05518:00001414
#05516:00140000140000000000000000000000
#05514:0000000000140000
#0541a:0000000000000014
#05418:0000000000130000
#05415:0013
#05412:0000001300000024
#0541b:00000013
#05112:0000000013000013
#05117:0000000000000013
#0511b:0000001300130000
#05116:0013000000000000
#05312:0000001300130000
#0531b:0013000000000013
#05317:0000000000130000
#05316:0013000000000000
#05215:0000000000130000
#05212:0000000013000023
#0521b:0000001300000023
#05218:00000013
#05015:0000000000130000
#05018:0013
#0501b:0000001300000000
#05012:00000013
#05017:0000000000000013
#0491b:0000001300130000
#04912:0013000000000013
#04916:0000000000130000
#04917:0013000000000000
#04815:00000013
#04818:0000000000130000
#0481b:0000000013000023
#04812:0000000000000023
#04810:0000000000000041
#04615:0000001300001300
#0461b:0000000013000013
#04618:1300130000130000
#04612:0013000000000000
#04514:0014000000140000
#04515:0000000000000013
#0451a:00000014
#04518:00141400
#04512:0000001400000000
#04412:00131300
#0441b:0013001300000000
#04418:0000000000140000
#04414:00000014
#0431b:00130013
#04312:0000001300130000
#04317:0013
#04316:0013000000000000
#0421b:0000000000130000
#04212:0013000000001300
#04217:00130000
#04112:0014
#04118:00000000000000140000130000000000
#04114:0000001400000000
#04115:00000013
#04110:41
#04012:0000000014000024
#04016:0000000000140000
#0401a:00000014
#04018:0000001300000000
#04015:00130000
#0401b:0013000000000000
#03315:0000001300000000
#03318:0000001300000000
#03310:41
#03212:00000016
#03215:1616
#03218:00160000
#03112:1600002600001600
#03115:00000000000000000014000000000000
#03118:2600001600000000
#03116:00000014000000000000000000000000
#02915:0000001300001300
#0291a:0000000000000014
#0291b:2300000000130000
#0291b:23
#02918:00130000
#02912:23
#02912:23
#02818:0013001300000013
#02815:00000013
#02812:00130000
#0261b:00000013
#02615:00000013
#02612:00130000
#02618:0013130000000000
#0271b:0000001300000000
#02718:13000013
#02712:00130000
#02715:0000000000130013
#02515:0000130000000013
#02518:0000001300000000
#02512:2400000000130000
#0251b:00000013
#0251a:24
#02510:41
#02416:0000000000000014
#02415:0013000013000000
#0241b:0013000013000000
#02412:0000001300000000
#02418:0000001300000000
#02312:0000000000130000
#0231b:0013000000000000
#02315:0013000000000023
#02318:0000000000000013
#02212:0000000000130000
#02218:0000000000130000
#02215:0013000000000000
#0221b:0013000000000000
#02112:2300130000000013
#02118:0000001300001300
#02115:0000000000130000
#0211b:23
#0181b:00130000
#01815:0013130000001300
#01818:0000000000000013
#01912:0000001300000000
#01915:13000013
#0191b:00130000
#01918:0000000000130013
#01718:0000130000000013
#01715:0000001300000000
#0171b:0000000000130000
#01712:24000013
#0171a:24
#01710:41
#01212:0000000000000016
#0111b:0000000000000013
#01018:0000000000000016
#00912:0000000000000013
#00812:0016000000000016
#00818:1600160000000026
#00713:0015001500150015
#00718:15151515
#00614:0014001400140014
#00618:14141414
#00515:0013001300130013
#00518:13131313
#0731a:2400001400000014
#07312:0014000000001400
#07314:0014
#07316:00140000
#07318:0000000000140000
#0731f:21
#0301a:0000000000140000
#03012:0014001400000000
#03016:0000140000000014
#02018:00000013
#02015:0013001300000000
#0201b:00130000
#0571b:0013000000000013
#05718:00130013
#05715:0000001300130000
#05712:0013
#0391b:00000013
#03915:0000000000130000
#0391a:0013
#03914:0000001300000000
#03919:00130000
#03913:0013000000000000
#03918:13
#03812:0013000000000013
#03815:00130013
#03818:0000001300130000
#0381b:0013
#03715:0013000000001300
#03718:0000130000130000
#06318:0000333333333326
#06312:0000000000000026
#06315:0000333333333300
#04715:0000000000290000
#04712:0000000000000029
#07256:0000001200000000
#07258:0000001200000000
#08352:1400000000000053
#08358:0023000000000000
#0835b:63
#08156:14
#08152:24242424242424242424242424242424
#08154:0024002400240024002400240024002400240024002400240024002400240024
#08153:00640064006400640064006400640064006400640064006400640064006400640064006400640064006400640064006400640064006400640064006400640064
#07858:0013000000000000
#07855:0013000000000000
#0785b:0063
#06158:00002424242424241400000000000000
#06154:00002424242424241400000000000000
#06159:00000000000000000054005400540054005400540054005400540054005400540000000000000000000000000000000000000000000000000000000000000000
#0615a:0000000000240024002400240024002400000000000000000000000000000000
#06153:00000000000000000064006400640064006400640064006400640064006400640000000000000000000000000000000000000000000000000000000000000000
#06152:0000000000240024002400240024002400000000000000000000000053000000
#05659:0000006500450000
#05652:0054003400350016
#0565b:0043000000000000
#05658:0000000000000016
#05656:00242500
#05657:23
#0555a:00440000
#0555b:0000000000000063
#05552:0000000000000033
#05556:00240000640000000000000000000000
#05356:0000000000000013
#05357:0000001300000000
#05352:0000001300530000
#0535b:0063000000000013
#05256:0013000000000000
#0525b:0013000000000013
#05252:0000000000000013
#04957:0000000000000013
#04956:0000001300000000
#0495b:0000001300630000
#04952:0053000000000013
#0355b:63636363636363636363636363631300
#03552:53535353535353535353535353531300
#0355a:0053005300530053005300530053005300530053005300530053005300000000
#03553:0063006300630063006300630063006300630063006300630063006300000000
#03258:00660046
#03252:00360056
#03255:2626
#02655:00001363
#0265b:0013
#02652:00530000
#02658:00530000
#02452:0000005300130000
#02458:0000005300130000
#02455:0063000023000000
#0245b:0063000023000000
#02352:0000001300530000
#02355:0063000000000013
#0235b:0063000000000000
#02358:0000000000000053
#0225b:0063000000000013
#02258:0000001300530000
#02252:0000001300530000
#02255:0063000000000000
#01858:0013
#01852:0013
#0185b:00630000
#01855:00630000
#01452:0000000000000016
#01458:0000000000000066
#01258:0000000000000016
#01252:0000000000000056
#01052:0000000000000016
#01058:0000000000000056
#00852:0000000000160066
#00858:0000000000000016
#07456:00541400
#0745a:0014
#07452:00540000
#03158:4600006600004600
#03152:5600003600005600
#03155:00000000000000000024000000000000
#03156:00000024000000000000000000000000
#04852:0000000000000013
#0485b:0000000000000013
#08752:1400005400000000
#0875a:0000000000000064
#08756:0024
#08452:0000000000000013
#08455:23
#0845b:0000000000000063
#06558:16
#0805a:0064
#08052:54545454545454541400000000000000
#08053:0064006400640064006400640064006400000000000000000000000000000000
#0795a:00000000646464646464646464641400
#07953:0000000000000000000000000000000000000000000000000000000000640064
#07952:00000000000000000000000000005454
#07959:0000000000000000005400540054005400540054005400540054005400000000
#07752:1600000000000054
#07758:56
#0775a:0000000000000064
#06358:0000000000000016
#06352:0000000000000016
#0605a:0000000000000064
#06052:00000054
#06057:00000000000000000023000000000000
#0605b:0000006300000000
#05452:0000000000000034
#0545a:0000000000000064
#0295b:13
#0295b:13
#02952:13
#02952:13
#02955:0000006300000000
#0295a:0000000000000064
#0255a:14
#02552:14
#02555:0000000000000063
#02558:0000005300000000
#02152:1300000000000053
#0215b:13
#02158:0000005300000000
#01752:14
#0175a:14
#01758:0000000000000053
#01755:0000006300000000
#01658:0016
#01652:0016
#04755:0000000000190000
#04752:0000000000000019
#0765a:0014
#07656:00240000000000000000002400000000
#07652:0054
#0735a:1400000000000064
#01356:0000000000000024
#08254:0024002400240024002400240024002400240024002400240024002400240024
#08253:00640064006400640064006400640064006400640064006400640064006400640064006400640064006400640064006400640064006400640064006400640064
#08252:24242424242424242424242424242424
#08856:24
#08552:0000000000000053
#07158:0000000000000066
#07152:0000000000000056
#0345b:63636363636363636363636363636363
#0345a:0053005300530053005300530053005300530053005300530053005300530053
#03452:53535353535353535353535353535353
#03453:0063006300630063006300630063006300630063006300630063006300630063
#07552:1400000000000014
#0755a:1400000000000064
#06252:0000000000000053
#0625b:0000006300000063
#05952:0000000000000053
#05957:53
#0595b:0000000000630000
#05856:00000000000000000023000000000000
#05852:0000005300000000
#05152:0000000000000053
#05157:0000000000000053
#0515b:0000000000630000
#05156:0063000000000000
#03355:0000006300000000
#03358:0000005300000000
#0275b:0000006300000000
#02758:53
#02755:0000000000000063
#02858:0000005300000000
#01952:0000005300000000
#01955:63
#01958:0000000000000053
#01556:00000000000000000000002400000000
#0115b:0000000000000023
#00952:0000000000000023
#03052:0000005400000000
#02058:00000053
#02055:0000006300000000
#05057:0000000000000053
#0575b:0000000000000063
#0465b:0000000000000013
#001380:12
#002380:22
#002361:12
#003361:22
#003380:12
#004380:22
#004351:13535353535353535353535353535353
#004341:0053005300530053005300530053005300530053005300530053005300530053
#005351:23
#008321:0000001600260000
#008380:0000000000160026
#008321:0000000000000016
#009321:0000000000000053
#010321:0000000000000026
#010380:0000000000000016
#0113b0:0000000000000053
#012380:0000000000000026
#012321:0000000000000016
#013361:0000000000000054
#014321:0000000000000026
#014380:0000000000000016
#015360:00000000000000000000005400000000
#016380:0026
#017350:0000001300000000
#017320:0000000000230000
#017380:0000000000000013
#0183b0:0023000000000000
#0183b0:00130000
#018380:0023
#018351:00130000
#018321:0023
#019351:13
#019321:00230000
#019321:0000001300000000
#019351:0000000000230000
#019381:0000000000000013
#0203b1:0023000000000000
#020351:0000001300000000
#020321:00000023
#020380:00000013
#0213b0:23
#021380:0000001300000000
#0213b0:0000000000230000
#021320:0000000000000013
#022350:0033000000000000
#022320:0000002300000000
#0223b1:0013000000000000
#022381:0000002300000000
#022321:0000000000130000
#022351:0000000000000033
#023351:0033000000000000
#023321:0000002300000000
#022380:0000000000130000
#0223b0:0000000000000023
#0233b0:0013000000000000
#023380:0000003300230000
#023321:0000000000130000
#023351:0000000000000023
#023380:0000000000000013
#0243b0:0033000053000000
#024380:0000003300230000
#024351:0013000053000000
#024321:0000003300230000
#025381:0000001300000000
#0253b1:0000000000230000
#025351:0000000000000013
#026321:0023000000000000
#026321:00130000
#026351:0023
#026380:00130000
#0263b0:0023
#026350:00000013
#027320:23
#027381:13
#0273b1:00230000
#0273b1:0000001300000000
#027381:0000000000230000
#027351:0000000000000013
#028321:0023000000000000
#028381:0000001300000000
#0283b1:00000023
#029351:0000001300000000
#029321:0000000000230000
#0293a1:0000000000000014
#030361:0024000000000000
#030321:0000001400000000
#030361:0000000000240000
#031321:1600002600000000
#031361:00000054000000000000000000000000
#031380:0000001600002600
#031350:00000000000000000054000000000000
#031321:00000016
#032351:56
#032321:00260000
#032380:00160026
#032350:0056
#032321:00000016
#033351:0000005300000000
#034321:53535353535353535353535353535353
#034331:0053005300530053005300530053005300530053005300530053005300530053
#035321:53535353535353535353535353532300
#035331:0053005300530053005300530053005300530053005300530053005300000000
#033380:0000001300000000
#0343b0:53535353535353535353535353535353
#0343a0:0053005300530053005300530053005300530053005300530053005300530053
#0353b0:53535353535353535353535353532300
#0353a0:0053005300530053005300530053005300530053005300530053005300000000
#0363b0:00000000000000000000000000001353
#0363a0:0000000000000000000000000000000000000000000000000000000000530053
#0373b0:53532300000000000000000000000000
#0373a0:0053005300000000000000000000000000000000000000000000000000000000
#037320:00000000000013535353230000000000
#037330:0000000000000000000000000053005300530053000000000000000000000000
#0373a0:00000000000000000000000000001454
#037390:0000000000000000000000000000000000000000000000000000000000540054
#0383a0:54542400000000000000000000000000
#038390:0054005400000000000000000000000000000000000000000000000000000000
#039360:00000000000000000000000000001353
#039350:0000000000000000000000000000000000000000000000000000000000530053
#040360:53532300000000000000000000000000
#040350:0053005300000000000000000000000000000000000000000000000000000000
#0403a0:00000000000000000000000000001454
#040390:0000000000000000000000000000000000000000000000000000000000540054
#0413a0:54545454545424000000000000000000
#041390:0054005400540054005400540000000000000000000000000000000000000000
#0413b0:0000000000000013
#041390:0000000000000000000000000000000000000000000000000000000000530000
#0413a0:00000000000000000000000000000053
#041380:0000000000000000000000000000000000000000000000000000000000000053
#042390:53
#042370:0053000023000000000000000000000000000000000000000000000000000000
#042380:00530000000000000000000000000000
#042360:0000005300000000000000000000000000000000000000000000000000000000
#042320:0000001300000000
#042340:0000000000000000000000000053000053000000000000000000000000000000
#042330:00000000000000530000000000000000
#042350:0000000000000000000000000000005300005300000000000000000000000000
#042360:0000000000000000000000000000000000530000230000000000000000000000
#042370:0000000000000000000000000000000000000053000000000000000000000000
#042370:0000000000000000000000000000000000000000000000000000000013000053
#042360:0000000000000000000000000000000000000000000000000000000000530000
#042380:00000000000000000000000000000053
#043390:5300005300000000000000000000000000000000000000000000000000000000
#043380:0053000000000000000000000000000000000000000000000000000000000000
#0433a0:00530000000000000000000000000000
#0433b0:0023000000000000
#043360:0000000000000000000000000000000000000000000000000000000013000053
#043370:0000000000000000000000000000000000000000000000000000000000530000
#043350:00000000000000000000000000000053
#044340:5300005300000000000000000000000000000000000000000000000000000000
#044350:0053000000000000000000000000000000000000000000000000000000000000
#044330:00530000000000000000000000000000
#044320:0023000000000000
#044380:00000000000000000000000000001454
#044390:0000000000000000000000000000000000000000000000000000000000540054
#045380:54542400000000000000000000000000
#045390:0054005400000000000000000000000000000000000000000000000000000000
#046320:00000000000000000000000000001353
#046330:0000000000000000000000000000000000000000000000000000000000530053
#047320:53535353535353535353230000000000
#047330:0053005300530053005300530053005300530053000000000000000000000000
#0473b0:00000000000000000000000000001353
#0473a0:0000000000000000000000000000000000000000000000000000000000530053
#0483b0:53535353230000000000000000000000
#0483a0:0053005300530053000000000000000000000000000000000000000000000000
#048321:00000000135353532300000000000000
#048331:0000000000000000005300530053005300000000000000000000000000000000
#049321:0013000000000000
#049361:0000002300000000
#0493b1:0000000000130000
#049371:0000000000000023
#050371:0000000000000013
#0513b1:0023000000000000
#051360:0013000000000000
#051320:0000002300000000
#0513b0:0000000000130000
#051370:0000000000000033
#0523b0:0023000000000000
#051321:0000000000000013
#052361:0023000000000000
#0533b1:0013000000000000
#053371:0000002300000000
#053321:0000000000130000
#053361:0000000000000023
#0543a1:0000000000000014
#055361:00540000000000000000000000000000
#0553a1:00240000
#055360:00140000
#055320:0024
#0553b0:0000000000000013
#056370:53
#0563b0:0023000000000000
#056321:0014002400000000
#056361:00540000
#056390:0000001500250000
#056360:0055
#0573b0:0000000000000013
#058370:0023000000000000
#058320:0000001300002300
#058360:00000000000000000053000000000000
#059370:13
#0593b0:00230000
#0593b0:0000000000130000
#059370:0000000000000023
#059321:0000000000000013
#060361:0023000000000000
#0603b1:0000001300002300
#060371:00000000000000000053000000000000
#060320:00000014
#061340:00005454545454542400000000000000
#061330:00000000000000000054005400540054005400540054005400540054005400540000000000000000000000000000000000000000000000000000000000000000
#061320:0000000000540054005400540054005400000000000000000000000000000000
#0603a1:0000000000000014
#061381:00005454545454542400000000000000
#061391:00000000000000000054005400540054005400540054005400540054005400540000000000000000000000000000000000000000000000000000000000000000
#0613a1:0000000000540054005400540054005400000000000000000000000000000000
#061321:0000000000000013
#062361:0023000000000000
#0623b1:0000001300000000
#062371:0000000000230000
#0623b1:0000000000000013
#063381:0033333333333326
#062320:0000000000000013
#063350:0033333333333300
#063320:0000000000000026
#071320:0000000000001636
#072360:0000002200000000
#071381:0000000000000016
#072381:0000002200000000
#0733a1:0000000000000014
#074361:0034340000000000
#0743a1:0024
#074320:00140000
#074360:0024
#0753a0:0000000000000014
#076360:00540000000000000000000000000000
#0763a0:00240000
#076320:0000000014000024
#076360:00000000000000000000005400000000
#077380:16
#0773a0:0000000000000034
#078380:0023000000000000
#077321:0000000000000014
#078351:0023000000000000
#0783b1:0013
#078381:00000023
#0793a1:00000000145454545454545454542400
#079391:0000000000000000005400540054005400540054005400540054005400000000
#079320:00000000000000000000000000001454
#079330:0000000000000000000000000000000000000000000000000000000000540054
#080320:54545454545454542400000000000000
#080330:0054005400540054005400540054005400000000000000000000000000000000
#0803a1:0000000000000000000000000000000014343434343434343434343434343434
#081361:24
#081320:14545454545454545454545454545454
#081330:00540054005400540054005400540054005400540054005400540054005400540054005400540054005400540054005400540054005400540054005400540054
#081340:0054005400540054005400540054005400540054005400540054005400540054
#082320:54545454545454545454545454545454
#082330:00540054005400540054005400540054005400540054005400540054005400540054005400540054005400540054005400540054005400540054005400540054
#082340:0054005400540054005400540054005400540054005400540054005400540054
#083320:24
#0833b1:13230000
#083381:0053000000000000
#083321:0000000000000013
#084351:53
#084321:0023000000000000
#0843b1:0000000000000013
#085371:0023000000000000
#085321:0000000000000013
#086361:0023000000000000
#087321:0000001400240000
#087361:0054
#0873a1:0000000000000014
#088361:54
#0883a1:0024000000000000
#065920:1652
#066920:560000000000000000000000000000000000000000000000000000000000000000000000000000000000000000000000000000000000000000000000000000000000000000000000000000000000000000000000000000000000000000000000000000000000000000000000000000000000000000000000000000000000000000000000000000000000000000000000000000000000000000000000000000000000000000000000000000000000000000000000000000000000000000000000000000000000000000000000000000000000000000000000000000000000000000000000000000000000000000000000000000000000000000000000000000000000000000000000000000000000000000000000000000000000000000000000000000000000000000000000000000000000000000000000000000000000000000000000000000000000000000000000000000000000000000000000000000000000000000000000000000000000000000000000000000000000000000000000000000000000000000000000000000000000000000000000000000000000000000000000000000000000000000000000000000000000000000000000000000000000000000000000000000000000000000000000000000000000000000000000000000000000000000000000000000000000000000000000000000000000000000000000000000000000000000000000000000000000000000000000000000000000000000000000000000000000000000000000000000000000000000000000000000000000000000000000000000000000000000000000000000000000000000000000000000000000000000000000000000000000000000000000000000000000000000000000000000000000000000000000000000000000000000000000000000000000000000000000000000000000000000000000000000000000000000000000000000000000000000000000000000000000000000000000000000000000000000000000000000000000000000000000000000000000000000000000000000000000000000000000000000000000000000000000000000000000000000000000000000000000000000000000000000000000000000000000000000000000000000000000000000000000000000000000000000000000000000000000000000000000000000000000000000000000000000000000000000000000000000000000000000000000000000000000000000000000000000000000000000000000000000000000000000000000000000000000000000000000000000000000000000000000000000000000000000000000000000000000000000000000000000000000000000000000000000000000000000000000000000000000000000000000000000000000000000000000000000000000000000000000000000000000000000000000000000000000000000000000000000000000000000000000000000000000000000000000000000000000000000000000000000000000000000000000000000000000000000000000000000000000000000000000000000000000000000000000000000000000000000000000000000000000000000000000000000000000000000000000000000000000000000000000000000000000000000000000000000000000000000000000000000000000000000000000000000000000000000000000000000000000000000000000000000000000000000000000000000000000000000000000000000000000000000000000000000000000000000000000000000000000000000000000000000000000000000000000000000000000000000000000000000000000000000000000000000000000000000000000000000000000000000000000000000000000000000000000000000000000000000000000000000000000000000000000000000000000000000000000000000000000000000000000000000000000000000000000000000000000000000000000000000000000000000000000000000000000000000000000000000000000000000000000000000000000000000000000000000000000000000000000000000000000000000000000000000000000000000000000000000000000000000000000000000000000000000000000000000000000000000000000000000000000000000000000000000000000000000000000000000000000000000000000000000000000000000000000000000000000000000000000000000000000000000000000000000000000000000000000000000000000000000000000000000000000000000000000000000000000000000000000000000000000000000000000000000000000000000000000000000000000000000000000000000000000000000000000000000000000000000000000000000000000000000000000000000000000000000000000000000000000000000000000000000000000000000000000000000000000000000000000000000000000000000000000000000000000000000000000000000000000000000000000000000000000000000000000000000000000000000000000000000000000000000000000000000000000000000000056565656565656
#066960:0052
#067920:26
#067981:16
#0679c1:0052
#068981:560000000000000000000000000000000000000000000000000000000000000000000000000000000000000000000000000000000000000000000000000000000000000000000000000000000000000000000000000000000000000000000000000000000000000000000000000000000000000000000000000000000000000000000000000000000000000000000000000000000000000000000000000000000000000000000000000000000000000000000000000000000000000000000000000000000000000000000000000000000000000000000000000000000000000000000000000000000000000000000000000000000000000000000000000000000000000000000000000000000000000000000000000000000000000000000000000000000000000000000000000000000000000000000000000000000000000000000000000000000000000000000000000000000000000000000000000000000000000000000000000000000000000000000000000000000000000000000000000000000000000000000000000000000000000000000000000000000000000000000000000000000000000000000000000000000000000000000000000000000000000000000000000000000000000000000000000000000000000000000000000000000000000000000000000000000000000000000000000000000000000000000000000000000000000000000000000000000000000000000000000000000000000000000000000000000000000000000000000000000000000000000000000000000000000000000000000000000000000000000000000000000000000000000000000000000000000000000000000000000000000000000000000000000000000000000000000000000000000000000000000000000000000000000000000000000000000000000000000000000000000000000000000000000000000000000000000000000000000000000000000000000000000000000000000000000000000000000000000000000000000000000000000000000000000000000000000000000000000000000000000000000000000000000000000000000000000000000000000000000000000000000000000000000000000000000000000000000000000000000000000000000000000000000000000000000000000000000000000000000000000000000000000000000000000000000000000000000000000000000000000000000000000000000000000000000000000000000000000000000000000000000000000000000000000000000000000000000000000000000000520000000000000000000000000000000000000000000000000000000000000000000000000000000000000000000000000000000000000000000000000000000000000000000000000000000000000000000000000000000000000000000000000000000000000000000000000000000000000000000000000000000000000000000000000000000000000000000000000000000000000000000000000000000000000000000000000000000000000000000000000000000000000000000000000000000000000000000000000000000000000000000000000000000000000000000000000000000000000000000000000000000000000000000000000000000000000000000000000000000000000000000000000000000000000000000000000000000000000000000000000000000000000000000000000000000000000000000000000000000000000000000000000000000000000000000000000000000000000000000000000000000000000000000000000000000000000000000000000000000000000000000000000000000000000000000000000000000000000000000000000000000000000000000000000000000000000000000000000000000000000000000000000000000000000000000000000000000000000000000000000000000000000000000000000000000000000000000000000000000000000000000000000000000000000000000000000000000000000000000000000000000000000000000000000000000000000000000000000000000000000000000000000000000000000000000000000000000000000000000000000000000000000000000000000000000000000000000000000000000000000000000000000000000000000000000000000000000000000000000000000000000000000000000000000000000000000000000000000000000000000000000000000000000000000000000000000000000000000000000000000000000000000000000000000000000000000000000000000000000000000000000000000000000000000000000000000000000000000000000000000000000000000000000000000000000000000000000000000000000000000000000000000000000000000000000000000000000000000000000000000000000000000000000000000000000000000000000000000000000000000000000000000000000000000000000000000000000000000000000000000000000000000000000000000000000000000000000000000000000000000000000000000000000000000000000000000000000056565656565656
#069981:26
#069920:130000000000000000000000000000000000000000000000000000000000000000000000000000000000000000000000000000000000000000000000000000000000000000000000000000000000000000000000000000000000000000000000000000000000000000000000000000000000000000000000000000000000000000000000000000000000000000000000000000000000000000000000000000000000000000000000000000000000000000000000000000000000000000000000000000000000000000000000000000000000000000000000000000000000000000000000000000000000000000000000000000000000000000000000000000000000000000000000000000000000000000000000000000000000000000000000000000000000000000000000000000000000000000000000000000000000000000000000000000000000000000000000000000000000000000000000000000000000000000000000000000000000000000000000000000000000000000000000000000000000000000000000000000000000000000000000000000000000000000000000000000000000000000000000000000000000000000000000000000000000000000000000000000000000000000000000000000000000000000000000000000000000000000000000000000000000000000000000000000000000000000000000000000000000000000000000000000000000000000000000000000000000000000000000000000000000000000000000000000000000000000000000000000000000000000000000000000000000000000000000000000000000000000000000000000000000000000000000000000000000000000000000000000000000000000000000000000000000000000000000000000000000000000000000000000000000000000000000000000000000000000000000000000000000000000000000000000000000000000000000000000000000000000000000000000000000000000000000000000000000000000000000000000000000000000000000000000000000000000000000000000000000000000000000000000000000000000000000000000000000000000000000000000000000000000000000000000000000000000000000000000000000000000000000000000000000000000000000000000000000000000000000000000000000000000000000000000000000000000000000000000000000000000000000000000000000000000000000000000000000000000000000000000000000000000000000000000000000000000000000000000000000000000000000000000000000000000000000000000000000000000000000000000000000000000000000000000000000000000000000000000000000000000000000000000000000000000000000000000000000000000000000000000000000000000000000000000000000000000000000000000000000000000000000000000000000000000000000000000000000000000000000000000000000000000000000000000000000000000000000000000000000000000000000000000000000000000000000000000000000000000000000000000000000000000000000000000000000000000000000000000000000000000000000000000000000000000000000000000000000000000000000000000000000000000000000000000000000000000000000000000000000000000000000000000000000000000000000000000000000000000000000000000000000000000000000000000000000000000000000000000000000000000000000000000000000000000000000000000000000000000000000000000000000000000000000000000000000000000000000000000000000000000000000000000000000000000000000000000000000000000000000000000000000000000000000000000000000000000000000000000000000000000000000000000000000000000000000000000000000000000000000000000000000000000000000000000000000000000000000000000000000000000000000000000000000000000000000000000000000000000000000000000000000000000000000000000000000000000000000000000000000000000000000000000000000000000000000000000000000000000000000000000000000000000000000000000000000000000000000000000000000000000000000000000000000000000000000000000000000000000000000000000000000000000000000000000000000000000000000000000000000000000000000000000000000000000000000000000000000000000000000000000000000000000000000000000000000000000000000000000000000000000000000000000000000000000000000000000000000000000000000000000000000000000000000000000000000000000000000000000000000000000000000000000000000000000000000000000000000000000000000000000000000000000000000000000000000000000000000000000000000000000000000000000000000000000000000000000000000000000000000000000000000000000000000000000000000000000535353
#069960:0053
#070920:23
#0709b1:130000000000000000000000000000000000000000000000000000000000000000000000000000000000000000000000000000000000000000000000000000000000000000000000000000000000000000000000000000000000000000000000000000000000000000000000000000000000000000000000000000000000000000000000000000000000000000000000000000000000000000000000000000000000000000000000000000000000000000000000000000000000000000000000000000000000000000000000000000000000000000000000000000000000000000000000000000000000000000000000000000000000000000000000000000000000000000000000000000000000000000000000000000000000000000000000000000000000000000000000000000000000000000000000000000000000000000000000000000000000000000000000000000000000000000000000000000000000000000000000000000000000000000000000000000000000000000000000000000000000000000000000000000000000000000000000000000000000000000000000000000000000000000000000000000000000000000000000000000000000000000000000000000000000000000000000000000000000000000000000000000000000000000000000000000000000000000000000000000000000000000000000000000000000000000000000000000000000000000000000000000000000000000000000000000000000000000000000000000000000000000000000000000000000000000000000000000000000000000000000000000000000000000000000000000000000000000000000000000000000000000000000000000000000000000000000000000000000000000000000000000000000000000000000000000000000000000000000000000000000000000000000000000000000000000000000000000000000000000000000000000000000000000000000000000000000000000000000000000000000000000000000000000000000000000000000000000000000000000000000000000000000000000000000000000000000000000000000000000000000000000000000000000000000000000000000000000000000000000000000000000000000000000000000000000000000000000000000000000000000000000000000000000000000000000000000000000000000000000000000000000000000000000000000000000000000000000000000000000000000000000000000000000000000000000000000000000000000000000000000000000000000000000000000000000000000000000000000000000000000000000000000000000000000000000000000000000000000000000000000000000000000000000000000000000000000000000000000000000000000000000000000000000000000000000000000000000000000000000000000000000000000000000000000000000000000000000000000000000000000000000000000000000000000000000000000000000000000000000000000000000000000000000000000000000000000000000000000000000000000000000000000000000000000000000000000000000000000000000000000000000000000000000000000000000000000000000000000000000000000000000000000000000000000000000000000000000000000000000000000000000000000000000000000000000000000000000000000000000000000000000000000000000000000000000000000000000000000000000000000000000000000000000000000000000000000000000000000000000000000000000000000000000000000000000000000000000000000000000000000000000000000000000000000000000000000000000000000000000000000000000000000000000000000000000000000000000000000000000000000000000000000000000000000000000000000000000000000000000000000000000000000000000000000000000000000000000000000000000000000000000000000000000000000000000000000000000000000000000000000000000000000000000000000000000000000000000000000000000000000000000000000000000000000000000000000000000000000000000000000000000000000000000000000000000000000000000000000000000000000000000000000000000000000000000000000000000000000000000000000000000000000000000000000000000000000000000000000000000000000000000000000000000000000000000000000000000000000000000000000000000000000000000000000000000000000000000000000000000000000000000000000000000000000000000000000000000000000000000000000000000000000000000000000000000000000000000000000000000000000000000000000000000000000000000000000000000000000000000000000000000000000000000000000000000000000000000000000000000000000000000000000000000000000000000000000000000000000000000000000000000000000000000000000000000000000000000000000000000535353
#070971:0053
#0719b1:23
