This file was generated by Ched 2.7.0.0.
#TITLE ""
#ARTIST ""
#DESIGNER ""
#DIFFICULTY 0
#PLAYLEVEL
#SONGID ""
#WAVE ""
#WAVEOFFSET 0
#JACKET ""
#REQUEST "ticks_per_beat 480"
#00002: 4
#BPM01: 192
#00008: 01
#TIL00: ""
#VOLUME: ""
#HISPEED 00
#MEASUREHS 00
#00518:00131313
#08612:0013
#08615:00130013
#0861b:0013
#08618:0013000000000013
#06418:00130013
#06415:0013
#04112:00000015
#04110:41
#03818:00131313
#03815:0000001300130013
#0391b:13
#03918:00130000
#03915:0013
#03912:00000013
#0361b:00130000
#03618:00001313
#03615:0000000000130000
#0211b:00000013
#02118:00130000
#02112:2300001300000000
#02115:0000000000000013
#03014:0000140000000014
#03018:0000001400000000
#0841b:0013
#08418:0000130000000023
#08412:0013
#08415:0013000000001300
#08515:0000130000000013
#08512:0013
#0851b:0013
#08518:00000013
#08318:0000130000000013
#08315:00000013
#0831b:0013
#08312:0013
#06515:0000001300001300
#0651b:0000000000130013
#06518:00130000
#06512:26
#01715:00000013
#01712:00130000
#01718:2400001300000000
#0171b:0000000000000013
#01710:41
#01915:13000013
#01918:0000001300000000
#0191b:0000000000000013
#02015:00130013
#02018:0000001300000000
#0291a:0000140000000014
#02912:0000001400000000
#02914:24
#07815:0000001300001300
#07815:0000001300000000
#07818:0000000013000013
#07612:0000001414000000
#0761a:0000001414000000
#00615:00141414
#00612:14
#0061a:24
#00719:15
#00717:00151515
#00712:25
#00812:1600160000000016
#00818:2600001600000000
#00815:0000000000160000
#01018:0000000000000016
#01614:0000000000000014
#01616:0024
#01818:0000130000000013
#01815:00000013
#02218:0000000000130000
#02212:0013000000000000
#02818:0000130000000014
#02815:0000001300000000
#04012:00001515
#04019:0000000000150000
#06118:00000013
#06115:0000000000000013
#06215:0000000000130000
#06218:00000013
#06212:0000000000000013
#0621b:0000001300000000
#01212:0000000000000016
#01418:0000000000000016
#02315:0013000000000000
#0231b:0000000000130000
#02318:0000000000000023
#02412:0013000000000000
#02415:0000001300000000
#02418:0000000000000014
#02518:00000013
#0251b:00130000
#02515:0000001300000000
#02512:0000000000000013
#02514:24
#02510:41
#02718:13000013
#02715:0000001300000000
#02712:0000000000000013
#02615:00130000
#0261b:00000013
#03118:26000016
#03112:0000002600000000
#03216:16
#03212:00000016
#03315:00160000000000000000000000000000
#03312:0000001600000000
#03310:41
#04212:00140013
#04312:00130000
#04315:0013
#04318:00000013
#0601a:0000000000002414
#06012:0013000000002414
#07718:14
#07714:14
#07915:13230000
#07918:0013000000000000
#08012:0013
#0801b:0023
#08114:14
#08118:14
#06618:0000130000000013
#06615:00000013
#07012:0000000000130013
#07018:0013000000001300
#0711a:0014001400000000
#07112:0000000000150015
#07114:00140000
#07119:00000015
#07318:0000001400140000
#07312:00141400
#0731a:0014000000000014
#07314:24000014
#0731f:21
#07418:0000000000000014
#07412:00000014
#07417:00140000
#07514:1400001400140000
#0751a:00141400
#07510:41
#0671b:00130000
#06715:1300001300000000
#06718:00000013
#06712:0000000000000013
#06912:13
#06915:0000001300001300
#0691b:0000000000130013
#06918:00130000
#0681b:0000000000000013
#06818:00130000
#06815:0000001300000000
#07218:0000000000130014
#07215:0015000000001300
#05915:0000130013000013
#05918:0000001300130000
#0591b:13
#0581b:0013000000000000
#05812:00000013
#05618:0014000000150000
#05613:0000001500000000
#0561f:0000000000000011
#05612:0000000000000026
#05514:0000000000140014
#05518:00001414
#05414:0000000000000014
#05415:0000001300130000
#05418:00001313
#0531b:0000000000130000
#05312:0013000000000000
#04818:00000013
#04815:0000000000130000
#04812:0000000000000023
#04810:0000000000000041
#05112:0000000000000013
#05115:0000001300130000
#05118:0013
#04518:00001414
#04514:0000000000140000
#05218:0000001300130000
#05215:00001313
#0521b:0000000000000023
#05018:0000001300130013
#05015:00001313
#04912:0000000000130000
#0491b:0013000000000000
#04618:0013000013001300
#04615:1300130000130000
#05718:0013001300130013
#05715:00131313
#04414:0000000000140000
#04418:00001415
#08716:0000000000240000
#0871a:0000002400000024
#08719:0023000000000000
#08714:23
#08712:0000240000000024
#08814:00240000
#08813:0025
#08812:00000026
#08818:0024002400250026
#06315:0000000000000023
#04715:0000000000230000
#06355:0000000000000013
#06552:16
#0655b:0000000000000063
#01758:1400005300000000
#0175b:0000000000000063
#0295a:0000000000000064
#02954:14
#02952:0000005400000000
#01656:0014
#00852:0000000000000066
#01058:0000000000000056
#01955:63
#01958:0000005300000000
#0195b:0000000000000063
#02152:1300005300000000
#02155:0000000000000063
#02258:0000000000530000
#0225b:0000000000000013
#02252:0053000000000000
#02255:0000001300000000
#06252:0000000000000053
#00555:13
#01252:0000000000000056
#01458:0000000000000066
#01858:00530000
#0185b:0013
#02055:00000063
#02355:0063000000000000
#02352:0000001300000000
#0235b:0000000000630000
#02358:0000000000000013
#02452:0053000000130000
#02455:0000006300000000
#02758:53
#02755:0000006300000000
#02752:0000000000000053
#02555:0000006300000000
#02552:0000000000000053
#02554:14
#02655:00630000
#02652:0013
#0265b:00000063
#03158:16000066
#03152:0000001600000000
#03256:26
#03258:00460000
#03252:00000056
#03355:00260000000000000000000000000000
#03352:0000006600000000
#03652:13
#0605a:0000000000000064
#06052:0053000000000054
#06055:0000001300000000
#06158:0014
#06154:0014
#06155:0000000000000063
#0765a:0064
#07652:0054
#0775a:0000000000000014
#07758:54
#07754:64
#07752:0000000000000014
#07955:00630000
#0805b:0063
#08052:0053
#08154:64
#08158:54
#08358:16
#08352:16
#08458:0000000000000013
#0665b:0013
#06658:00530000
#07554:1400000000640000
#07552:0000000000000014
#0695b:0000000000000063
#06755:0000006300000000
#06752:0000000000000053
#07058:0053000000000000
#0705b:0000001300000000
#07255:0065000000000000
#07252:0000001400000000
#07152:0000000000000055
#0735a:0000000000000064
#07457:00540000
#0745a:0014
#05552:00140000
#05554:0000000000000014
#05358:0000000000000013
#05355:0000001300000000
#0535b:0000000000630000
#05352:0053000000000000
#05255:0013000000000000
#0525b:0000000000000013
#0515b:0013000000000000
#05152:0000000000000053
#05155:0000000000630000
#04955:0000000000000013
#04958:0000001300000000
#04952:0000000000530000
#0495b:0063000000000000
#04858:0000001300000000
#04852:0000000000000013
#05858:0000001300000000
#0585b:0063000000000000
#04755:0000000000130000
#05652:0000000000000016
#05658:0014000000150000
#05653:0000001500000000
#05955:0000000000000063
#05454:0000000000000064
#05058:0000000000000053
#05758:0000000000000053
#001380:13
#002380:33
#003380:23
#003351:13
#004351:33535353535353535353535353535353
#004341:0053005300530053005300530053005300530053005300530053005300530053
#005351:23
#008321:0000000000000016
#010321:0000000000000023
#010380:0000000000000016
#0123b0:0000000000000023
#012321:0000000000000016
#014351:0000000000000023
#014380:0000000000000016
#016360:0024
#017380:0000001300000000
#0173b0:0000000000230000
#0173b0:0000000000000013
#018380:0033330000000000
#0183b0:0023
#019350:13
#019320:00230000
#019380:0000001300000000
#0193b0:0000000000230000
#0193b0:0000000000000013
#020380:0023000000000000
#020350:00000013
#021320:23
#021320:0000001300000000
#021350:0000000000230000
#021350:0000000000000013
#022320:0033000000000000
#022350:0000002300000000
#022380:0000000000130000
#0223b0:0000000000000023
#023350:0013000000000000
#023320:0000002300000000
#0233b0:0000000000130000
#023380:0000000000000023
#024320:0013000000230000
#024350:0000003300000000
#025350:0000001300000000
#025320:0000000000230000
#025320:0000000000000013
#026350:0033330000000000
#026320:0023
#0263b0:00000013
#027380:33
#0273b0:00230000
#027350:0000001300000000
#027320:0000000000230000
#027320:0000000000000013
#028350:0023000000000000
#029320:0000001400000000
#029340:0000000000240000
#0293a0:0000000000000014
#030380:0024000000000000
#031380:00000016
#032360:56
#032380:00260000
#032320:00000016
#033350:00560000000000000000000000000000
#033320:0000003600000000
#036320:23
#036350:00000000000000000000000000001353
#036340:0000000000000000000000000000000000000000000000000000000000530053
#037350:53532300000000000000000000000000
#037340:0053005300000000000000000000000000000000000000000000000000000000
#037380:00000000000014545454240000000000
#037390:0000000000000000000000000054005400540054000000000000000000000000
#037330:00000000000000000000000000001555
#037320:0000000000000000000000000000000000000000000000000000000000550055
#038330:55552500000000000000000000000000
#038320:0055005500000000000000000000000000000000000000000000000000000000
#0393b0:00000000000000000000000000001353
#0393a0:0000000000000000000000000000000000000000000000000000000000530053
#0403b0:53535353230000000000000000000000
#0403a0:0053005300530053000000000000000000000000000000000000000000000000
#040390:00000000000000000000000000001555
#040380:0000000000000000000000000000000000000000000000000000000000550055
#041390:55555555555555552500000000000000
#041380:0055005500550055005500550055005500000000000000000000000000000000
#041390:00000000000000000000000000001555
#041380:0000000000000000000000000000000000000000000000000000000000550055
#042390:55552500000000000000000000000000
#042380:0055005500000000000000000000000000000000000000000000000000000000
#0423a0:00000000000014545454240000000000
#042390:0000000000000000000000000054005400540054000000000000000000000000
#0423b0:00000000000000000000000000001353
#0423a0:0000000000000000000000000000000000000000000000000000000000530053
#0433b0:53532300000000000000000000000000
#0433a0:0053005300000000000000000000000000000000000000000000000000000000
#043350:00000000000000000000000000001353
#043340:0000000000000000000000000000000000000000000000000000000000530053
#044350:53535353230000000000000000000000
#044340:0053005300530053000000000000000000000000000000000000000000000000
#044330:00000000000000000000000000001555
#044320:0000000000000000000000000000000000000000000000000000000000550055
#045330:55555555250000000000000000000000
#045320:0055005500550055000000000000000000000000000000000000000000000000
#046350:00000000000000000000000000001353
#046340:0000000000000000000000000000000000000000000000000000000000530053
#047350:53535353535353535353230000000000
#047340:0053005300530053005300530053005300530053000000000000000000000000
#047380:00000000000000000000000000001353
#047390:0000000000000000000000000000000000000000000000000000000000530053
#048380:53535353535323000000000000000000
#048390:0053005300530053005300530000000000000000000000000000000000000000
#0493b0:0013000000000000
#049380:0000002300000000
#049320:0000000000130000
#049350:0000000000000023
#050380:0000000000000013
#0513b0:0023000000000000
#051350:0000000000130000
#051320:0000000000000033
#052350:0023000000000000
#053320:0013000000000000
#053350:0000002300000000
#0533b0:0000000000130000
#053380:0000000000000023
#054340:0000000000000014
#055320:00240000
#057380:0000000000000013
#0583b0:0033000000000000
#058380:0000002300000000
#059350:0000000000000013
#060320:0033000000000000
#060350:0000002300000000
#0603a0:0000000000001434
#061380:0024
#060321:0000000000001434
#061341:0024
#061351:0000000000000013
#062321:00230000
#062321:0000000000000013
#063351:0000000000000023
#0653b1:0000000000000013
#066381:00330000
#0663b1:0023
#067351:0000001300000000
#067321:0000000000230000
#067321:0000000000000013
#068351:0023000000000000
#0693b1:0000000000000013
#070381:0033000000000000
#0703b1:0000002300000000
#071321:0000000000000015
#072351:0035000000000000
#072321:0000002400000000
#0733a1:0000000000000014
#074371:0034340000000000
#0743a1:0024
#075341:0000000000140000
#075321:0000000000000024
#0763a1:0014
#076381:0000000000000034
#077381:34
#0773a1:0000000000003424
#076320:0014
#076340:0000000000000034
#077340:34
#077320:0000000000003424
#079350:00130000
#080320:0033
#081340:34
#083320:26
#0803b1:0013
#081381:34
#083381:26
