This file was generated by Ched 2.7.0.0.
#TITLE ""
#ARTIST ""
#DESIGNER ""
#DIFFICULTY 0
#PLAYLEVEL
#SONGID ""
#WAVE ""
#WAVEOFFSET 0
#JACKET ""
#REQUEST "ticks_per_beat 480"
#00002: 4
#BPM01: 114
#00008: 01
#TIL00: ""
#VOLUME: ""
#HISPEED 00
#MEASUREHS 00
#0001a:14
#0031a:00140000
#00314:0014
#00318:00000014
#00412:24140000
#00418:00001414
#00410:41
#0051a:00001414
#00514:14140000
#00612:14
#0061a:00140000
#00614:00001414
#00618:0000000000140000
#0071a:14
#00712:00140000
#00718:00001414
#00714:0000000000140000
#00812:1414
#00912:14
#00918:00140000
#0101a:1414
#0111a:14
#01114:00140000
#01110:41
#01212:14
#01218:0014
#01314:14
#0131a:00140000
#0141a:14
#01414:0014
#01518:14
#01512:00140000
#01618:14
#01610:41
#01714:14
#0181a:14
#02014:14
#02118:14
#02212:14
#02218:00140000
#02214:0014
#0221a:00000014
#0241a:00140000
#02414:00001414
#02418:0000000000140000
#02410:41
#0251a:14
#02512:00140000
#02518:00001414
#02514:0000000000140000
#02612:14140000
#02618:00001414
#02614:0000000000140014
#02714:00001414
#02812:00140000
#02818:00001414
#02814:0000000000140000
#0281a:24
#02912:14
#0291a:00140000
#02914:00001414
#02918:0000000000140000
#0301a:14140000
#03014:0014001400000000
#03018:00001414
#03012:0000000000140014
#03212:00140000
#03216:0014
#0321a:00000014
#03718:14
#0371a:0000000000000014000000000000000000000000000000000000000000000000
#03814:14
#03812:0000000000000014000000000000000000000000000000000000000000000000
#04014:14
#04018:00140000
#04012:0014
#0401a:00000014
#04112:14
#04114:0000000000000014000000000000000000000000000000000000000000000000
#03918:14
#0391a:0000000000000014000000000000000000000000000000000000000000000000
#0421a:14
#04218:0000000000000014000000000000000000000000000000000000000000000000
#04312:14
#04313:00000054000000000000000000005400
#04314:0000005454005400
#04418:00140000
#04414:0014
#0441f:11
#04412:54
#04912:24140000
#04918:00001414
#04914:0000000000140000
#0491f:21
#04910:0041
#01912:14140000
#0191a:00001414
#03512:0014
#03514:0000000000003434
#03513:0000000000340000
#03618:0014
#03614:00000014
#05012:14140000
#05018:00001414
#05014:0000000000140000
#05112:1414001400000000
#05118:00140000
#0511a:0000000014140014
#05114:00000014
#0541a:14
#05414:0014000000000000
#05419:00140014
#05413:0000001400000014
#05418:0014
#05412:0000000000140000
#02312:24
#03118:24
#04814:2424
#0481a:00240000
#04818:00000024
#05212:24
#0551a:24
#05614:24
#05718:24
#05812:24
#05818:00240000
#05814:0024
#0581a:00000024
#05912:24
#04518:0034
#04618:34
#05314:00000034000034000000000000000000
#03310:41
#00154:14
#00258:14
#00352:14
#01258:0014
#01658:64
#0165a:00000000000000140000000000000000
#01752:00000000000000140000000000000000
#01754:64
#0185a:64
#01858:00000000000000140000000000000000
#02054:64
#02052:00000000000000140000000000000000
#02158:54
#0215a:00000000000000140000000000000000
#02452:14
#03258:14
#03758:54000000000000140000000000000000
#0375a:0000000000000024000000000000000000000000000000000000000000000000
#03854:64000000000000140000000000000000
#03852:0000000000000024000000000000000000000000000000000000000000000000
#04152:54000000000000140000000000000000
#04154:0000000000000024000000000000000000000000000000000000000000000000
#03958:54000000000000140000000000000000
#0395a:0000000000000024000000000000000000000000000000000000000000000000
#0425a:64000000000000140000000000000000
#04258:0000000000000024000000000000000000000000000000000000000000000000
#04454:0014
#04854:14
#03552:0064
#03654:14
#05058:00000014
#0555a:14
#05654:14
#05758:14
#05852:14
#05952:0014
#000340:00000000000000000000140000340000
#001340:24
#001380:00000000000000000000140000340000
#002380:24
#002320:00000000000000000000140000340000
#003320:24
#009320:00001424
#0113a0:00001424
#013340:00001424
#015380:0014
#016380:34
#0163a0:00000000000000240000000000000000
#017340:14
#017320:00000000000000240000000000000000
#0183a0:14
#018380:00000000000000240000000000000000
#020340:14
#020320:00000000000000240000000000000000
#021380:14
#0213a0:00000000000000240000000000000000
#023320:14003434
#024320:24
#0273a0:14240000
#031380:14000000000000000000340000340000
#032380:24
#033340:14
#033320:0024
#034380:14
#0343a0:0024
#035320:1434
#035330:0000000000340000
#035340:0000000000003434
#036340:24
#037380:14000000000000240000000000000000
#0373a0:0000000000000054000000000000000000000000000000000000000000000000
#038340:14000000000000240000000000000000
#038320:0000000000000054000000000000000000000000000000000000000000000000
#039380:14000000000000240000000000000000
#0393a0:0000000000000054000000000000000000000000000000000000000000000000
#041320:14000000000000240000000000000000
#041340:0000000000000054000000000000000000000000000000000000000000000000
#0423a0:14000000000000240000000000000000
#042380:0000000000000054000000000000000000000000000000000000000000000000
#0453a0:14
#045380:0034
#046380:3424
#047320:14
#047330:0034
#048340:24
#052320:14
#052340:0034
#053320:34
#053340:00000034000034002400000000000000
#055340:00000000000000000000140000340000
#056340:24
#056380:00000000000000000000140000340000
#057380:24
#057320:00000000000000000000140000340000
#058320:24
#059320:1424
#043920:140000000000000000000000000000000000000000000000000000000000000000000000000000000000000000000000000000000000000000000000000000000000000000000000000000000000000000000000000000000000000000000000000000000000000000000000000000000000000000000000000000000000000000000000000000000000000000000000000000000000000000000000000000000000000000000000000000000000000000000000000000000000000000000000000000000000000000000000000000000000000000000000000000000000000000000000000000000000000000000000000000000000000000000000000000000000000000000000000000000000000000000000000000000000000000000000000000000000000000000000000000000000000000000000000000000000000000000000000000000000000000000000000000000000000000000000000000000000000000000000000000000000000000000000000000000000000000000000000000000000000000000000000000000000000000000000000000000000000000000000000000000000000000000000000000000000000000000000000000000000000000000000000000000000000000000000000000000000000000000000000000000000000000000000000000000000000000000000000000000000000000000000000000000000000000000000000000000000000000000000000000000000000000000000000000000000000000000000000000000000000000000000000000000000000000000000000000000000000000000000000000000000000000000000000000000000000000000000000000000000000000000000000000000000000000000000000000000000000000000000000000000000000000000000000000000000000000000000000000000000000000000000000000000000000000000000000000000000000000000000000000000000000000000000000000000000000000000000000000000000000000000000000000000000000000000000000000000000000000000000000000000000000000000000000000000000000000000000000000000000000000000000000000000000000000000000000000000000000000000000000000000000000000000000000000000000000000000000000000000000000000000000000000000000000000000000000000000000000000000000000000000000000000000000000000000000000000000000000000000000000000000000000000000000000000000000000000000000000000000000000000000000000000000000000000000000000000000000000000000000000000000000000000000000000000000000000000000000000000000000000000000000000000000000000000000000000000000000000000000000000000000000000000000000000000000000000000000000000000000000000000000000000000000000000000000000000000000000000000000000000000000000000000000000000000000000000000000000000000000000000000000000000000000000000000000000000000000000000000000000000000000000000000000000000000000000000000000000000000000000000000000000000000000000000000000000000000000000000000000000000000000000000000000000000000000000000000000000000000000000000000000000000000000000000000000000000000000000000000000000000000000000000000000000000000000000000000000000000000000000000000000000000000000000000000000000000000000000000000000000000000000000000000000000000000000000000000000000000000000000000000000000000000000000000000000000000000000000000000000000000000000000000000000000000000000000000000000000000000000000000000000000000000000000000000000000000000000000000000000000000000000000000000000000000000000000000000000000000000000000000000000000000000000000000000000000000000000000000000000000000000000000000000000000000000000000000000000000000000000000000000000000000000000000000000000000000000000000000000000000000000000000000000000000000000000000000000000000000000000000000000000000000000000000000000000000000000000000000000000000000000000000000000000000000000000000000000000000000000000000000000000000000000000000000000000000000000000000000000000000000000000000000000000000000000000000000000000000000000000000000000000000000000000000000000000000000000000000000000000000000000000000000000000000000000000000000000000000000000000000000000000000000000000000000000000000000000000000000000000000000000000000000000000000000000000000000000000000000000000000000000000000000000000000000000000000000000000000000000000000000000000000000000000000000000000000000000000000000000005454
#043940:0000005454005400
#044920:24
