This file was generated by Ched 2.7.0.0.
#TITLE ""
#ARTIST ""
#DESIGNER ""
#DIFFICULTY 0
#PLAYLEVEL
#SONGID ""
#WAVE ""
#WAVEOFFSET 0
#JACKET ""
#REQUEST "ticks_per_beat 480"
#00002: 4
#BPM01: 140
#00008: 01
#TIL00: ""
#VOLUME: ""
#HISPEED 00
#MEASUREHS 00
#02717:0012000000000000
#0271b:0000001200000000
#02719:00120000
#02715:12
#02718:00000012
#02716:0000000000000012
#02713:0012
#02615:0012
#02613:0000000000000012
#02619:00120012
#02617:0000001200120000
#02612:13
#0261b:23
#02519:0000000000000013
#0251b:23131300
#02518:0000001300000000
#02515:0013000000000000
#02512:13132313
#02116:0000000000000012
#02112:23131300
#02115:0000001300000000
#02118:0013000000000000
#0211b:13132313
#02214:12
#02215:0000000000000012
#02213:00000012
#02218:0012
#02217:00120000
#0221a:12
#02319:0012000000000000
#02317:12120000
#02313:0012
#02315:0000001200000013
#02318:00000013
#03815:0000001300000000
#03818:0000000013000013
#03812:13001323
#0381b:13230000
#03914:0000000000000013
#03915:0000001300000000
#03912:13001323
#0391b:13231313
#00518:0000130000000013
#0051b:1313
#00512:13001313
#00515:0013001300000000
#00615:1300001300000000
#00618:0000000013000013
#00614:00000013
#0061a:00130000
#00715:1300001300001300
#00718:0000130013000013
#00419:1313
#00418:0000000000000013
#00414:13
#00412:00130000
#00415:00000013
#00417:00130000
#00318:00000012
#00316:0000000000000012
#01118:1300001300001300
#01115:0000130013000013
#01215:0000130000130000
#0121b:13000013
#01212:1300000000000013
#01218:0013
#01312:0013000013001300
#01318:0000001300000013
#0131b:1313
#01315:13130000
#0141a:00131300
#01415:0000001300000000
#01414:00000013
#01418:0000000000000013
#01412:13
#01514:13
#01515:0000001300001300
#01518:0000130013000013
#01618:0000130000130000
#01612:13000013
#0161b:1300000000000013
#01615:0013
#01610:41
#0171b:0013000013001300
#01715:0000001300000013
#01712:1313
#01718:13130000
#01813:00131300
#01818:0000001300000000
#0181b:13
#01815:0000000000000013
#01819:00000013
#02816:0014
#02812:14000000000000000000000000000034
#0281a:12000014
#02813:00003400000000000000000000340000
#02814:00000000340000000000343400000000
#02815:0000003400000000
#0281c:0052
#02916:0014
#0291a:14000000000000000000000000000034
#02912:00141414
#02919:00003400000000000000000000340000
#02918:00000000340000000000343400000000
#02917:0000003400000000
#03012:0014
#03016:14
#0301a:00140000
#03019:0014
#03018:00000014
#03015:0034000000000000
#03014:00000000340000000000343400340034
#03013:0000003400000000
#0311a:00000000340034001400343400340034
#03118:14
#03114:00140000
#03113:0014
#03112:00000014
#03119:0034000000000000
#03216:00000000140000001400343414340034
#03212:1414
#0321a:00140014
#03214:0034003400000000
#03210:41
#03316:00000000140000001400343414340034
#0331a:1414
#03312:00140014
#03318:0034003400000000
#03416:00141414
#03412:14
#0341a:00000000140000000000343400000000
#03414:0034003400000000
#03512:00140014
#03516:14000000140000000000343400000000
#0351a:0014
#03514:0034003400000000
#03612:13000023
#03617:0013
#03616:00130000
#03618:0000000000000013
#0361b:00230013
#04115:0000000013000013
#0411b:0013000013002300
#04118:1300001300000000
#04112:00230000
#04218:0000001300000000
#04215:0000000013000013
#0421b:13001323
#04212:13230000
#0401b:13000023
#04017:00130000
#04016:1313
#04015:0000000000000013
#04012:00230013
#04010:41
#04315:0000130000000013
#04318:00130013
#04313:0000003300000000
#0431a:0000003300000000
#0551a:2414
#05516:0000240000140000
#05518:0000001400000014
#05514:0014000000000000
#05512:24002424
#0551f:21
#05616:14141414
#05614:0000000000000014
#05612:24
#0561a:0024
#05610:41
#05712:14240000
#05718:0014000000000000
#05714:0000001400000014
#0571a:24002414
#05716:00141424
#05912:2414
#05916:0000240000140000
#05914:0000001400000014
#05918:0014000000000000
#0591a:24002424
#05814:0000000000000014
#0581a:14002414
#05812:24141400
#06117:13
#06114:0013000000000000
#06116:00131300
#06118:0000001300001300
#06115:0000000000000013
#06112:13
#0611b:0013
#06016:14
#06018:00130000
#06015:0000001300000013
#06012:0013
#06019:0000000000130000
#06017:00000013
#0601b:0013
#0601a:24
#06215:0013000000000000
#06218:00000000000013000000001300130013
#0621b:0013
#06212:2300000000130000
#0691b:0000000000130000
#06916:00000000000000000000001300000000
#06919:00000013
#06914:00000000000000000000000000130000
#06917:0000000000000013
#06912:00000000000000001300000000000013
#06918:0013000000000000
#06915:0000001300000000
#03712:0013000013002300
#03715:1300001300000000
#03718:0000000013000013
#0371b:00230000
#02014:0000000000000013
#02012:1313
#02016:00130000
#0201b:23230023
#02017:0023
#02419:0000000000000013
#0241b:1313
#02417:00130000
#02412:23230023
#02416:0023
#02410:41
#0481b:13000013
#04815:0013
#04818:0000000000130000
#04819:0000000000000013
#04812:00000013
#04817:00130000
#04816:13
#0481f:11
#04912:00130013
#04918:0013
#04915:0000001300000000
#0491b:00130013
#04914:0013000000000013
#04916:14
#05016:1313
#0501b:1313
#05017:00130000
#05019:0000001300000000
#05012:00000013
#05014:0000000000000013
#05116:1313
#0511b:1313
#05117:00130000
#05119:0000001300000000
#05112:00000013
#04717:13001313
#04712:13001313
#04714:0000001300000000
#04716:00130000
#04719:0000000000000013
#04614:0000001300000000
#04616:00130000
#04612:1313
#04617:1313
#0461b:00000013
#04619:0000000000000013
#04519:0013000000000013
#0451b:00130013
#04512:00130013
#04516:14
#04518:0000001300000000
#04515:0013
#04416:00130000
#04417:13
#0441b:00000013
#04414:0000000000000013
#04412:13000013
#04415:0000000000130000
#04418:0013
#05212:13
#05217:00130000
#05214:0013
#05219:00000013
#0521b:13
#05316:13
#05318:00130000
#05315:0000001300000000
#0531b:0013
#05312:0013
#0091b:13001313
#00912:1313
#00918:0013001300000000
#00915:0000130000000013
#0081b:00130000
#00819:13
#00814:1313
#00815:0000000000000013
#00818:00000013
#00816:00130000
#00810:41
#01018:1300001300000000
#01015:0000000013000013
#01019:00000013
#01013:00130000
#01918:0000001300000013
#01915:00130013
#0191b:0013
#01912:0013
#01919:13
#06318:0013000000000000
#06315:00000000000013000000001300130013
#06312:0013
#0631b:0000000000130000
#06412:0013000000000000
#0641b:00000000000013000000001300130013
#06418:0013
#06415:0000000000130000
#0651b:0013000000000000
#06512:00000000000013000000001300130013
#06515:0013
#06518:0000000000130000
#06615:0013000000000000
#06618:0000001300000000
#0661b:00000000000000001300000000000013
#06619:00000000000000000000000000130000
#06617:00000000000000000000001300000000
#06612:0000000000130000
#06718:0013000000000000
#06715:0000001300000000
#06712:00000000000000001300000000000013
#06714:00000000000000000000000000130000
#06716:00000000000000000000001300000000
#0671b:0000000000130000
#06815:0013000000130000
#06818:0000001300000000
#0681b:00000000000000001300001300000000
#06817:00000000000000000000000000000013
#06819:00000000000000000000000000130000
#00758:0013
#00755:63
#00658:0053
#00655:63
#00459:0053
#00454:63
#00452:00530000
#01255:00630000
#0125b:63
#0145a:0063
#01452:53
#01554:53
#01558:0013
#01658:00530000
#01652:53
#0185b:63
#01853:0053
#02152:0053
#02652:13
#02856:0064
#02852:54
#0285a:52
#02956:0054
#0295a:64
#03052:0054
#03056:64
#0315a:0064
#03158:54
#03256:00640024
#03252:5454
#03356:00540024
#0335a:6464
#03456:00645400
#03452:54
#03552:00540000
#03556:64
#0355a:0064
#03652:53
#03656:00630000
#03952:53
#03858:0053
#03852:53
#0405b:63
#04057:00530000
#0425b:63
#04255:0063
#0435b:0013
#04352:0013
#04355:00630000
#04358:00530000
#0555a:1464
#05556:0000000000240000
#05552:0014
#05656:5464
#05652:14
#0565a:0014
#05952:1454
#05956:0000000000240000
#0595a:0014
#06156:0063
#00552:0013
#0055b:0013
#02052:5353
#02056:00630000
#0205b:13
#0245b:6363
#02457:00530000
#02452:13
#02258:0062
#02257:00620000
#0225a:62
#0495b:00130013
#04852:00130013
#04857:00530000
#04856:63
#05056:63
#0505b:0063
#05052:00130000
#05057:00000013
#05156:63
#05152:00130000
#0515b:0063
#0475b:00130000
#04757:53
#0465b:00130000
#04657:53
#04656:00000013
#04652:0053
#0445b:00130013
#04456:00630000
#04457:53
#04552:00130013
#05252:53
#05257:00530000
#05254:0053
#05259:00000053
#05356:63
#0535b:0063
#05358:00000013
#05352:0053
#05355:00000013
#0095b:0013
#00952:0013
#0085b:00630000
#00859:53
#00854:0063
#01158:53
#01155:0013
#01058:53
#01055:0063
#02753:0052
#01752:0013
#0175b:0013
#0135b:0013
#01352:0013
#0195b:0013
#01952:0013
#01959:63
#0585a:6414
#05852:1454
#0255b:0063
#0605a:14
#004340:1323
#004320:00330000
#004391:0013
#0043b1:00000023
#006351:13
#006321:00230000
#006381:0013
#0063a1:00000023
#007351:13
#007341:00230000
#008391:1323
#0083b1:00330000
#008340:0013
#008320:00000023
#010380:13
#0103b0:00230000
#010350:0013
#010330:00000023
#011380:13
#011390:00230000
#0123b0:13
#012380:00230000
#012351:00130000
#012321:0023
#014321:13
#014351:00230000
#0143a1:0013
#014381:00000023
#015341:13
#015351:00230000
#016321:13
#016351:00230000
#016380:00130000
#0163b0:0023
#0183b0:13
#018380:00230000
#018330:0013
#018350:00000023
#019390:13
#019380:00230000
#020320:1333
#020360:00330023
#021320:0013
#021360:00000023
#0223a0:12
#022390:00220000
#022371:00120000
#022361:0022
#022380:0012
#022370:00000022
#0243b0:1333
#024370:00330023
#0253b0:0013
#025370:00000023
#027330:0012
#027360:00000022
#028320:14000000000000000000000000000034
#028330:00003400000000000000000000340000
#028340:00000000340000000000343400000000
#028350:0000003400000000
#028360:0034
#029320:24
#0283a1:12
#0283c1:0022
#0293a1:14000000000000000000000000000034
#029391:00003400000000000000000000340000
#029381:00000000340000000000343400000000
#029371:0000003400000000
#029361:0034
#0303a1:24
#030360:14
#030350:0034000000000000
#030340:00000000340000000000343400340034
#030330:0000003400000000
#030320:0034
#031340:24
#031381:14
#031391:0034000000000000
#0313a1:00000000340034003400343400340034
#032361:24
#032320:1434
#032340:0034003400000000
#032360:00000000340000000000343454340034
#033320:24
#0333a1:1434
#033381:0034003400000000
#033361:00000000340000000000343454340034
#0343a1:24
#034320:1424
#034340:0034003400000000
#034360:00340000
#034361:0014
#0343a1:00000000000000000000343454340034
#0353a1:24
#035360:1424
#035340:0034003400000000
#035320:00340000
#0353a1:0014
#035361:00000000000000000000343454340034
#036361:24
#036320:1323
#036360:00330000
#038320:13
#038350:00230000
#038380:0013
#0383b0:00000023
#039320:13
#039350:00230000
#0403b0:1323
#040370:00330000
#0423b0:13
#042380:00230000
#042350:0013
#042320:00000023
#043380:13330000
#0433a0:0000003300000000
#0433b0:0023
#043351:13330000
#043331:0000003300000000
#043321:0023
#044371:13
#0443b1:00230000
#044360:00130000
#044320:0023
#046370:13
#0463b0:00230000
#046320:0013
#046360:00000023
#047370:13
#0473b0:00230000
#048360:13
#048320:00230000
#048371:00130000
#0483b1:0023
#050361:13
#050321:00230000
#0503b1:0013
#050371:00000023
#051361:13
#051321:00230000
#0513b1:0013
#051371:00000023
#052321:13
#052341:00230000
#052370:00130000
#052390:0023
#052341:0013
#052361:00000023
#052390:00000013
#0533b0:23
#053361:13
#053321:00230000
#0533b1:0013
#053381:00000023
#053320:0013
#053350:00000023
#0553a0:00001424
#055360:0000000000540000
#056360:14
#0563a0:00240000
#056360:0014
#056320:00000024
#0583a0:14
#058360:00240000
#058320:0014
#058360:00000024
#059320:00001424
#059360:0000000000540000
#061360:0013
#061320:00000023
#0623b0:13230000
#062321:00132300
#063321:13230000
#0633b0:00132300
#0643b0:13
#064380:00230000
#064321:00130000
#064351:0023
#065321:13
#065351:00230000
#0653b0:00130000
#065380:0023
#066380:13
#0663b0:00230000
#066351:00130000
#066321:0023
#067351:13
#067321:00230000
#067380:00130000
#0673b0:0023
#0683b0:13230000
#068380:0053000000000000
#068321:00132300
#068351:0000005300000000
#069321:13230000
#069351:0053000000000000
#0693b0:00132300
#069380:0000005300000000
