This file was generated by Ched 2.7.0.0.
#TITLE ""
#ARTIST ""
#DESIGNER ""
#DIFFICULTY 0
#PLAYLEVEL
#SONGID ""
#WAVE ""
#WAVEOFFSET 0
#JACKET ""
#REQUEST "ticks_per_beat 480"
#00002: 4
#BPM01: 180
#00008: 01
#TIL00: ""
#VOLUME: ""
#HISPEED 00
#MEASUREHS 00
#0011a:14
#00214:14
#00318:14
#00412:14
#0051a:14
#00614:14
#00718:14
#0101a:14
#01010:41
#0111a:14
#01214:14
#01314:14
#01418:14
#01518:14
#01612:14
#01712:14
#02612:0016
#02618:26
#02610:41
#02718:16
#02712:0016
#02818:1616
#03012:16
#03018:0016
#03112:16
#03118:0016
#03212:1616
#03418:1616
#03512:1616
#03618:16
#03612:0016
#04114:14
#04218:14
#04314:14
#0441a:14
#04512:14
#0461a:14
#0491a:14
#0501a:14
#05114:14
#05118:0014
#06114:14
#06218:14
#06314:14
#06418:14
#06518:0016
#06512:26
#0651f:21
#06612:1616
#06610:41
#06718:16
#06712:0016
#06818:1616
#07418:1414
#0781a:1414
#0531f:11
#07314:1414
#0771a:2414
#07710:41
#07914:1414
#08014:1414
#08118:1414
#08218:1414
#08312:1414
#08412:1414
#03812:26
#04018:26
#04010:41
#01819:00000034
#01810:41
#02313:34
#01918:0034
#008320:14
#009320:24
#0183a0:14
#018390:00000034
#019380:0034
#020380:00340000
#021380:24
#022320:14
#023330:34
#024340:34
#025340:24
#029380:1626
#033320:1626
#037380:1626
#038320:1600000000003636
#039320:0026
#047320:14
#048320:24
#052340:1424
#0533a0:14
#054380:24
#055320:14
#056340:24
#057380:14
#0583a0:34
#059380:34
#060380:24
#069320:16
#069340:0036
#070320:3626
#071380:16
#071360:0036
#072380:3626
#075320:14
#075340:0000000000000034
#076340:0024
#085380:16
#086380:26
