This file was generated by Ched 2.7.0.0.
#TITLE ""
#ARTIST ""
#DESIGNER ""
#DIFFICULTY 0
#PLAYLEVEL
#SONGID ""
#WAVE ""
#WAVEOFFSET 0
#JACKET ""
#REQUEST "ticks_per_beat 480"
#00002: 4
#BPM01: 140
#00008: 01
#TIL00: ""
#VOLUME: ""
#HISPEED 00
#MEASUREHS 00
#00412:0016
#00418:26
#00410:41
#00518:16
#00512:0016
#00618:16
#00612:0016
#00812:14
#00912:14
#0101a:14
#0111a:14
#01214:14
#01314:14
#01418:14
#01518:14
#02012:14
#02018:0014
#02112:14
#0221a:14
#02214:0014
#0231a:14
#02418:0016
#02412:26
#02410:41
#02512:16
#02518:0016
#02612:16
#02618:0016
#02818:1616
#02912:1616
#03018:16
#03012:0016
#03418:14
#03514:14
#03618:14
#04112:14
#04110:41
#04212:14
#0431a:14
#0441a:14
#04914:14
#05912:0016
#05918:16
#06018:1616
#06618:1616
#06712:1616
#06818:1616
#05812:0016
#05818:26
#0581f:21
#05810:0041
#06412:1616
#06218:0016
#06212:26
#06312:16
#06318:0016
#0501f:11
#06912:26
#03214:24
#01610:41
#03310:41
#007380:1626
#016320:14
#017320:24
#0183a0:14
#0193a0:24
#027320:1626
#031380:1626
#032340:14
#033320:24
#037340:1424
#0383a0:1424
#039320:1424
#040380:1424
#045340:14
#046320:24
#047380:14
#0483a0:24
#0503a0:14
#051380:34
#052380:34
#0533a0:24
#054320:14
#055340:34
#056340:34
#057320:24
#061380:1626
#065320:1626
#069320:1634
#070320:24
