This file was generated by Ched 2.7.0.0.
#TITLE ""
#ARTIST ""
#DESIGNER ""
#DIFFICULTY 0
#PLAYLEVEL
#SONGID ""
#WAVE ""
#WAVEOFFSET 0
#JACKET ""
#REQUEST "ticks_per_beat 480"
#00002: 4
#BPM01: 140
#00008: 01
#TIL00: ""
#VOLUME: ""
#HISPEED 00
#MEASUREHS 00
#00215:13
#00218:13
#00212:0013
#0021b:0013
#00418:00130000
#00415:0013
#00412:24000013
#0041a:24
#00410:41
#0051b:1313000000000000
#00515:0000131300000000
#00518:0000000013130000
#00512:0000000000001313
#0061a:14
#00615:00130000
#00618:0013
#00612:00000013
#00818:0013001300000000
#00815:00130000
#00812:0013
#00816:000000000000000000000000000000330033000000000000
#0091a:14
#00915:0013001300000000
#00918:00130000
#0091b:0013
#00917:000000000000000000000000000000330033000000000000
#01418:1313
#01412:1313
#01415:00130013
#0141b:00130013
#01618:0013001300001300
#01615:000000000000130000000000000033330033000000000000
#01612:2413
#0161b:000000000000000000000000000000000000000033330033
#01610:41
#01715:1300000000130000
#0171a:00140024
#01718:0013
#01712:00240014
#01815:0013001300001300
#01818:000000000000130000000000000033330033000000000000
#0181b:0013
#0181a:14
#01812:000000000000000000000000000000000000000033330033
#01918:1300000000130000
#01912:00140024
#01915:0013
#0191a:00240014
#0211b:13
#02115:0013000000000000
#02118:00130000
#02112:0000001300000000
#0211a:0014
#02218:00130000
#0221a:2414
#02212:2414
#02215:00000013
#02412:0013000000000000
#0241b:0013
#02415:00130013
#02418:000000000000000000130000000000330033000000000000
#0241a:24
#02410:41
#0251b:0013000000000000
#02512:1413
#02518:00130013
#02515:000000000000000000130000000000330033000000000000
#02815:0013000000001300
#02818:000000000000130000000000000000330033000000000000
#02812:000000000000000000130000000000000000000000330033
#0281b:0013
#0281a:24
#02915:000000000000130000000000000000330033000000000000
#0291b:0000001300000000
#02912:0013
#02918:0013000000001300
#02615:00140000
#02617:00000014
#0311a:0000000000140000
#03112:240000340000340034000000000000000000140000000000
#03118:140000340000340034000000000000000000000000000000
#03318:00001313
#03315:00130000
#0331a:00240000
#03312:00000024
#03310:41
#03415:13
#03412:00140024
#03418:0013
#0341a:00240014
#0351b:0000001300000013
#03512:0000000000130000
#03518:00230023
#03515:0023
#03615:1300130000140000
#03618:0013001300000000
#03612:0024
#03716:0000001400140014
#0371a:24140014
#03712:2414
#03917:13
#03912:13
#03916:0013
#0391b:0013
#04118:0013130000000013
#04115:0000001313000000
#0411b:0000000000131300
#04112:24
#04110:41
#04215:0013130000000013
#04218:0000001313000000
#04212:0000000000131300
#04318:00130000
#04315:0013
#0431b:00000013
#04716:00140000
#04712:0000001400000013
#0471b:0013
#04718:0000000000130000
#04715:00000013
#0471a:0014000000000000
#0481a:1400000000140000
#04815:001300000000000000000000
#04818:0013001400000014
#04812:00140014
#04814:0014
#0501b:00130013
#0501f:11
#0511b:00130013
#05212:00130013
#05312:00130013
#0541b:00130013
#05418:0013
#05512:00130013
#05515:0013
#05614:14
#05612:0014
#0561a:0014
#05812:0014001400140014
#05817:00140014
#0581a:2414
#0581f:21
#05810:0041
#0591a:14
#05915:0013000000130000
#0591b:0000001300000013
#05912:0013
#05918:00230023
#06012:1414
#0601a:0014001400140014
#06015:00140014
#06112:14
#0621a:0014001400140014
#06215:00140014
#06212:2414
#06312:1400001300000013
#06318:0013000000130000
#0631b:0013
#06315:00230023
#0641a:1414
#06412:0014001400140014
#06417:00140014
#0651a:2424000000140000
#06512:000000000000000000000024000000000000140000000000
#06515:00230000
#06518:002300
#06615:1323
#06612:00130023
#0661b:2313
#06618:00230013
#06718:0000000024140000
#06712:0000000000002414
#0671a:2414000000000000
#06714:0000241400000000
#06815:0013000000000000
#06814:0000001300000000
#06813:0000000000130000
#06812:0000000000000013
#0681a:24
#06819:00240000
#06818:0024
#06817:00000024
#07014:12
#0701a:12
#07018:00520000
#07016:00620000
#01016:1313
#01017:00130000
#01012:000033333333000000000000000033000033000000000000
#0101b:000000000000000033330033000000000000000000000000
#01117:1313
#01116:00130000
#0111b:000033330033000000000000000033000033000000000000
#01112:000000000000000033330033000000000000000000000000
#01212:13
#01214:00130000
#01217:0013000000000000
#01219:0000001300000000
#0131b:13
#01319:00130000
#01316:0013000000000000
#01314:0000001300000000
#0271a:14
#01518:23
#01512:23000024
#01516:0024
#0151a:00000024
#0201a:24
#02012:0024
#02016:000000340034000000000000000000340034000000000000
#02318:220062000000620000620000620000000000000000000000
#02315:00000022
#02319:00000022
#0321b:23
#03215:0023
#03212:000000000000000000000000000033330033330033330033
#03218:000033330033330033330033000000000000000000000000
#04417:23
#04412:2324
#04418:000000000000002400000000
#04414:000024
#0441a:00000024
#04512:24
#04516:00000024
#0451a:0000000000000034
#04616:00000024
#04612:0000000000000034
#0461b:0000000000330000
#04615:0000003300000000
#05718:230000230000000023000000000000000000000000000000
#05715:00230000
#05712:000000000000000000000024000000000000000000000000
#0571a:000000000000000000000024000000000000000000000000
#06916:240000000000220000000022000000000000000000000000
#0691a:0022000000000000
#06914:0022000000323232
#06918:002200
#0301a:00240000
#03012:00000024
#00715:22
#0071b:0022000000000000
#00716:000000000000220000000022000000000000000000000000
#00718:002200
#00719:22
#04914:24
#04912:0063
#03812:24
#0381a:00240000
#03813:00000024
#03819:00000024
#00258:63
#00255:63
#00252:0063
#0025b:0053
#00358:0013
#00355:0013
#00452:14
#0045a:14
#0065a:14
#00856:00000013
#00852:1463
#0095b:0053
#00957:00000013
#01555:00130000
#01558:63
#0155b:00130000
#01552:63
#01652:1453
#01658:00000053
#01455:00130013
#0145b:00130013
#0185b:0063
#01855:00000063
#0185a:14
#02056:00140014
#0205a:64
#02052:0054
#0215b:00000012
#0215a:0064
#02258:00130000
#02255:00000013
#0245a:14
#0245b:0063
#02552:0053
#02855:00000063
#0285b:0063
#0285a:14
#02952:1353
#02958:00000063
#03352:13
#0355b:0000002300000023
#03558:00630063
#03552:0000000000230000
#03555:0053
#03652:00006434
#03655:0000000000240000
#0385a:0014
#03853:00000014
#03859:00000014
#03957:63000013
#0395b:00135300
#03952:63000013
#03956:00135300
#04152:14
#0415b:00000063
#04158:0000000000000063
#0425b:13
#04252:00000053
#04255:0000000000000053
#04352:13
#04358:00130000
#04355:0013
#0435b:00000013
#04457:63
#0445b:000000000013000000000000000000000000000000000000
#04452:63
#04456:000000000013000000000000000000000000000000000000
#04552:14
#04556:00000064
#0465a:14
#04656:00000054
#04752:14
#0485a:0000000000140000
#04858:0000000000000014
#0585a:1414
#05857:00140014
#0595a:14
#06052:1414
#06055:00140014
#06152:14
#06255:00140014
#06252:1414
#06352:14
#0645a:1414
#06457:00140014
#06552:000000000000000000000014000000000000000000000000
#06956:000000000000000000000062000000000000000000000000
#07054:62
#0705a:62
#01056:5353
#01057:00630000
#01052:00000013
#01157:6363
#01156:00530000
#0115b:00000013
#01256:00000013
#01357:00000013
#0315a:000000000000000000000014000000000000000000000000
#03154:000000000000000000000014000000000000000000000000
#03158:64
#03152:64
#00756:000000000000000000000062000000000000000000000000
#04954:64
#002380:13
#0023b0:0033
#003380:33332300
#002351:13
#002321:0033
#003351:33332300
#007361:000000000000000000000012000000000000000000000000
#007321:0000000000343434
#008321:24
#008321:0013
#008361:000000000000000000000000000000330033230000000000
#0093b1:0013
#009371:000000000000000000000000000000330033230000000000
#010361:13
#010321:000033333333230000000000000000000000000000000000
#010370:00130000
#0103b0:000000000000000033330033230000000000000000000000
#010361:0013
#010321:000000000000000000000000000033000033230000000000
#011371:13
#0113b1:000033330033230000000000000000000000000000000000
#011360:00130000
#011320:000000000000000033330033230000000000000000000000
#011371:0013
#0113b1:000000000000000000000000000033000033230000000000
#012361:000000000000000000000000130000330033230000000000
#013371:0000000013332300
#015321:13
#015351:00230000
#015380:13
#0153b0:00230000
#016320:0013
#016350:000000000000000000000000000033330033230000000000
#016381:00000013
#0163b1:000000000000000000000000000000000000000033330033
#0173b1:23
#0183b1:0013
#018381:000000000000000000000000000033330033230000000000
#018350:00000013
#018320:000000000000000000000000000000000000000033330033
#019320:23
#0203a0:14
#020360:000000340034240000000000000000000000000000000000
#020320:0014
#020360:000000000000000000000000000000340034240000000000
#0213a0:0014
#0213b0:00000022
#0243b0:0013
#024380:000000000000000000000000000000330033230000000000
#025320:0013
#025350:000000000000000000000000000000330033230000000000
#0263a0:14240000
#026320:00001424
#027320:0014002400000000
#027350:00340000
#0273a0:0000000000140034
#027370:00000034
#0283a0:24
#0283b0:0013
#028380:000000000000000000000000000000330033230000000000
#028351:00000013
#028321:000000000000000000000000000000000000000000330033
#029321:23
#029321:0013
#029351:000000000000000000000000000000330033230000000000
#029380:00000013
#0303b0:23
#030341:1424
#030380:0014
#031380:340000340000340034000000000000000000000000000000
#0313a0:000000000000000000000024000000000000000000000000
#031321:140000340000340034000000000000000000000000000000
#031341:000000000000000000000024000000000000000000000000
#0323b1:13
#032381:000033330033330033330033230000000000000000000000
#032350:0013
#032320:000000000000000000000000000033330033330033330033
#033320:23
#035350:13230000
#035381:00132300
#0353b1:0000005300000000
#035350:00001323
#035320:0000000000530000
#035381:00000013
#0353b1:0000000000000053
#036381:23
#036321:00001424
#036351:0000000000540000
#038321:14240000
#038351:0034000000000000
#0383a0:00142400
#038370:0000003400000000
#039370:13
#0393b0:00230000
#039321:13
#039361:00230000
#039361:0013
#039321:00000023
#0393b0:0013
#039370:00000023
#0403a0:140034340034240000000000000000000000000000000000
#040341:000000000000140034340034240000000000000000000000
#040380:000000000000000000000000143434343434240000000000
#040321:000000000000000000000000000000000000140034340000
#041321:24
#0413b1:00000013
#041381:0000000000000033
#0423b1:23
#042321:00000013
#042351:0000000000000053
#043321:23
#044371:13
#0443b1:000000000023000000000000000000000000000000000000
#044320:13
#044360:000000000023000000000000000000000000000000000000
#0453b0:00130000
#0453a0:003300
#045390:000000000033000000000000
#045380:0023
#045351:0013
#045341:000000000000003300000000
#045331:000033
#045321:00000023
#045360:00000014
#0453a0:0000000000000034
#0463a0:24
#046320:00130000
#046350:0000003323000000
#046381:0013
#0463b1:0000000000332300
#046360:00000014
#046320:0000000000000034
#047320:24
#049340:14
#049320:0023
#050350:13
#051340:55
#052350:23
#052381:13
#053371:55
#054381:23
#054340:14
#054350:0052
#055340:24
#055381:14
#055391:0052
#056381:24
#0613a1:0014002400000000
#061371:00340000
#061321:0000000000140034
#061351:00000034
#062321:24
#069361:000000000000000000000012000000000000000000000000
#069341:0000000000323232
#070341:32
#070361:00220000
#0703a0:12
#070380:00220000
#023980:120000000000000000000000000000000000000000000000000000000000000000000000000000000000000000000000000000000000000000000000000000000000000000000000000000000000000000000000000000000000000000000000000000000000000000000000000000000000000000000000000000000000000000000000000000000000000000000000000000000000000000000000000000000000000000000000000000000000000000000000000000000000000000000000000000000000000000000000000000000000000000000000000000000000000000000000000000000000000000000000000000000000000000000000000000000000000000000000000000000000000000000000000000000000000000000000000000000000000000000000000000000000000000000000000000000000000000000000000000000000000000000000000000000000000000000000000000000000000000000000000000000000000000000000000000000000000000000000000000000000000000000000000000000000000000000000000000000000000000000000000000000000000000000000000000000000000000000000000000000000000000000000000000000000000000000000000000000000000000000000000000000000000000000000000000000000000000000000000000000000000000000000000000000000000000000000000000000000000000000000000000000000000000000000000000000000000000000000000000000000000000000000000000000000000000000000000000000000000000000000000000000000000000000000000000000000000000000000000000000000000000000000000000000000000000000000000000000000000000000000000000000000000000000000000000000000000000000000000000000000000000000000000000000000000000000000000000000000000000000000000000000000000000000000000000000000000000000000000000000000000000000000000000000000000000000000000000000000000000000000000000000000000000000000000000000000000000000000000000000000000000000000000000000000000000000000000000000000000000000000000000000000000000000000000000000000000000000000000000000000000000000000000000000000000000000000000000000000000000000000000000000000000000000000000000000000000000000000000000000000000000000000000000000000000000000000000000000000000000005252220000000000000000000000000000000000000000000000000000000000000000000000000000000000000000000000000000000000000000000000000000000000000000000000000000000000000000000000000000000000000000000000000000000000000000000000000000000000000000000000000000000000000000000000000000000000000000000000000000000000000000000000000000000000000000000000000000000000000000000000000000000000000000000000000000000000000000000000000000000000000000000000000000000000000000000000000000000000000000000000000000000000000000000000000000000000000000000000000000000000000000000000000000000000000000000000000000000000000000000000000000000000000000000000000000000000000000000000000000000000000000000000000000000000000000000000000000000000000000000000000000000000000000000000000000000000000000000000000000000000000000000000000000000000000000000000000000000000000000000000000000000000000000000000000000000000000000000000000000000000000000000000000000000000000000000000000000000000000000000000000000000000000000000000000000000000000000000000000000000000000000000000000000000000000000000000000000000000000000000000000000000000000000000000000000000000000000000000000000000000000000000000000000000000000000000000000000000000000000000000000000000000000000000000000000000000000000000000000000000000000000000000000000000000000000000000000000000000000000000000000000000000000000000000000000000000000000000000000000000000000000000000000000000000000000000000000000000000000000000000000000000000000000000000000000000000000000000000000000000000000000000000000000000000000000000000000000000000000000000000000000000000000000000000000000000000000000000000000000000000000000000000000000000000000000000000000000000000000000000000000000000000000000000000000000000000000000000000000000000000000000000000000000000000000000000000000000000000000000000000000000000000000000000000000000000000000000000000000000000000000000000000000000000000000000000000000000000000000000000000
