This file was generated by Ched 2.7.0.0.
#TITLE ""
#ARTIST ""
#DESIGNER ""
#DIFFICULTY 0
#PLAYLEVEL
#SONGID ""
#WAVE ""
#WAVEOFFSET 0
#JACKET ""
#REQUEST "ticks_per_beat 480"
#00002: 4
#BPM01: 188
#00008: 01
#TIL00: ""
#VOLUME: ""
#HISPEED 00
#MEASUREHS 00
#00015:0013
#0001b:23630000
#00018:0000000000230000
#00012:0000000000000024
#0001a:0000000000000024
#00019:00630063000000000000000000000000
#00017:0063000000000000
#00212:0000130000000013
#00218:0000001300000000
#00215:0000000000130000
#0021b:0000000000130000
#00214:00000000000000000000000000000053
#0031b:0013001300130000
#00315:00131323
#00316:53
#0041b:0000130000000013
#00415:0000001300000000
#00412:0000000000130000
#00418:0000000000130000
#00419:00000000000000000000000000000053
#00512:0013001300130000
#00518:00131323
#00517:53
#00615:00130000
#0061b:0000001300000000
#00612:0000000000130000
#00617:0000000000000013
#00619:00000000000000000000000000000053
#00715:0013001300130000
#00718:00131323
#0071b:53
#00818:00130000
#00812:0000001300000000
#0081b:0000000000130000
#00816:0000000000000013
#00814:00000000000000000000000000000053
#0091b:0013000000000000
#00915:00130000
#00918:0000001300000000
#00912:5323
#01012:1313
#01015:00130000
#01918:00131313
#01915:0000001300130013
#01912:24
#0191a:24
#01910:41
#02018:13000013
#02015:0000000000130013
#02115:00131313
#02118:0000001300130013
#0211a:24
#02215:1300000000000013
#02218:00000013
#0231a:14
#02315:0000130000000013
#02318:0000001300001300
#02312:0014
#0241a:1400000000240000
#02415:00130000
#02418:0000001300000013
#02412:0000000000240000
#02512:14
#02518:00130013
#02515:0000001300130013
#0251a:0014
#03015:0013
#03018:0000000000130000
#03012:2400000000000014
#0301a:2400000000000014
#03115:0000130000130000
#03118:0000001300001300
#0311b:0000000000000013
#03112:0013000000000000
#03212:0000001300000000
#03215:0023000000130000
#0321b:0000001300000000
#03218:0013000000130000
#03312:13000000000000000000000000000000000000000000000000000000000000000000000000000000000000000000000000000000000000000000000000000064
#0331b:13
#03318:0000000000000000000000000000000000000000000000000000000000000053
#0331a:00000000000000000000000000000000000000000000000000000000000000000000000000000000000000000000000000000000000000000000000000000054
#03315:0000000000000000000000000000000000000000000000000000000000000063
#04112:0000001400002400
#0411a:0014
#04116:0024000000000000
#0281a:14
#0281a:24
#02812:24
#02814:00240000
#02816:0024
#02818:00000024
#0511a:0000001400000000
#05115:0000001400000000
#05117:14
#05112:24
#05110:41
#05212:0000001400000000
#05217:0000001400000000
#0521a:14
#05215:24
#0531a:0000001400000000
#05315:0000001400000000
#05317:14
#05312:24
#05515:14
#05512:0000001400000000
#0551a:24
#05517:0000002400000000
#0561a:0000001400000000
#05612:14
#05615:0000001400000000
#05617:24
#05715:14
#05712:0000001400000000
#0571a:24
#05717:0000002400000000
#05917:14
#0591a:0000001400000000
#05912:24000024
#05915:0000002400000000
#05910:41
#06012:0000001400000000
#0601a:14000014
#06017:0000001400000000
#06015:24
#06117:14
#0611a:0000001400000000
#06112:24000024
#06115:0000002400000000
#05419:15150000
#05412:00001515
#06218:16160000
#06212:00001616
#06616:2800001800000000
#07512:2600000013000024
#0751b:00000013
#07518:00260000
#07510:00410000
#07715:00130000
#07718:0013000000000000
#0771a:0000002400000014
#07712:2400002400000000
#07815:1414
#07817:0014000000140000
#07812:00140014
#0781a:0000001400000000
#0811a:0014
#08112:0000001400002300
#08117:00000013
#08116:0024000000000000
#08318:0013000000000013
#08315:00130000
#08312:2400002400000000
#0831a:0000002400000000
#08518:00130000
#08515:0013000000000013
#0851a:2400002400000000
#08512:0000002400000000
#08412:13000014
#08415:0013000013000000
#08418:0000130000130000
#0841b:0000001300000000
#0861a:00000014
#0861b:13
#08618:0013000013000000
#08615:0000130000130000
#08612:0000001300000000
#06312:0016
#06318:26
#06412:0017
#06417:27
#06512:00180018
#06516:2828
#0711a:14141414
#07112:24242424
#07219:14141414
#07213:24242424
#07318:0014001400140000
#07314:24242424
#08718:0000001400140000
#08712:24
#0871a:24
#08714:00242424
#0901a:14
#09018:00000014
#09012:24
#09014:00000024
#09114:00000014
#09118:0000000000001413
#09115:0000000000000013
#09112:24
#0011a:00000014
#00112:0024000000001400
#0491a:00000014
#04912:0024000000001400
#04918:0000000000000014
#04914:0000000000000014
#01112:00130013
#01118:0000001300130013
#0111a:24
#01110:41
#0121b:0000000000130000
#01215:00000013
#01218:0000000000000013
#01212:24
#0131b:00130013
#01315:0000001300130013
#01312:24
#0141b:00000013
#0141a:24
#0151b:00130013
#01515:0000001300130013
#01512:24
#01517:24
#01618:0000000000130000
#01615:0013000000000013
#0161a:24
#01712:0000001300130000
#01717:0013
#0171b:0000000000000013
#0171a:24
#01816:13
#0181b:0013000000000000
#01812:0000002400000000
#03715:00130000
#03718:0013000000000013
#0371a:0000001400000000
#03712:2400000000140000
#03815:1313
#03818:0013000000130000
#03812:00130014
#0381b:0000001300000000
#03917:0014000000000000
#07912:0014000000000000
#07917:0014000000000000
#08217:0013
#0821b:00130000
#08219:13
#08214:23
#08212:0023
#08216:00230000
#04315:0013000000000013
#04318:00130000
#04312:0000001400000000
#0431a:2400000000140000
#04418:1313
#04415:0013000000130000
#0441b:00130000
#04412:0000001300000000
#0441a:00000014
#04515:00130000
#04518:0013000000000013
#0451a:0000001400000000
#04512:2400000000140000
#04615:1313
#04618:0013000000130000
#04612:00130014
#0461b:0000001300000000
#04715:00131313
#04718:0000001300130000
#0471a:24
#04712:24
#07414:00240013
#07419:00640000000000000000000000000000000000000000000000000000000000000064000000000000000000000000000013000000000000000000000000000000
#07418:2424
#0741a:0064000000000000000000000000000000640000000000000000000000000000
#07413:00000000000000000000000000000000006400000000000000000000000000000000000000000000000000000000000000000000000000000000000000000000
#07412:0000000000000000006400000000000000000000000000000000000000000000
#0271f:11
#02714:00240000
#02716:0024
#02718:00000024
#0261a:24
#02612:00240000
#02618:00002424
#02614:0000000000240000
#0291a:24
#02912:24
#02918:00240000
#02916:0024
#02914:00000024
#04216:24
#04212:0024
#0421a:00240000
#04812:24
#05812:24240000
#05817:24240000
#0581a:00002424
#05815:00002424
#07617:2424
#07615:0024000000240000
#0761a:00240024
#07612:0000002400000000
#0691a:24000024
#06916:00240000
#06912:0024
#07016:24000024
#07012:00240000
#0701a:0024
#0671a:0024
#06716:00000024
#06712:00240000
#0681a:00240000
#06816:0024
#06812:24000024
#08812:24
#03618:2323
#0361b:00230000
#0361a:00000024
#03615:0023000000230000
#03612:0000002300000000
#03610:41
#04015:0024000000000000
#0801a:0024000000000000
#08015:0024000000000000
#03512:2c
#03515:0000000000000023
#0351f:21
#00052:0000000000000014
#0005a:0000000000000014
#0065b:1300001300000000
#00652:0000000000130000
#00758:00000063
#0085b:1300000000130000
#00852:0000001300000000
#01052:6363
#01055:00530000
#01856:00000014
#0185b:0013000000000000
#01852:0000006400000000
#02058:53
#0205b:0000001300000000
#02255:63
#02252:0000001300000000
#0235a:14
#02352:0014
#0245a:14
#02552:14
#0255a:0014
#0265a:14
#02652:00140000
#02758:14
#03052:0000000000000014
#0305a:0000000000000014
#0315b:0000000000000013
#03158:0000001300000000
#03255:0063000000630000
#03258:0063000000530000
#03252:0000006300000000
#0325b:0000006300000000
#03352:63
#0335b:53
#04256:00000014
#04252:0064
#0415a:0014
#0515a:0000006400000000
#05155:0000006400000000
#05157:54
#05152:54
#05252:0000005400000000
#05257:0000005400000000
#0525a:54
#05255:54
#0535a:0000006400000000
#05355:0000006400000000
#05357:54
#05352:54
#05555:54
#05557:0000006400000000
#05552:0000005400000000
#0565a:0000006400000000
#05657:64
#05655:0000006400000000
#05755:54
#05752:0000005400000000
#05757:0000006400000000
#05957:64
#0595a:0000006400000000
#06052:0000005400000000
#06055:64
#06157:64
#0615a:0000006400000000
#06358:16
#06352:0016
#05459:15150000
#05452:00001515
#06258:16160000
#06252:00001616
#06457:17
#06452:0017
#06556:1818
#06552:00180018
#06656:0000006800000000
#06756:14
#0765a:00000014
#07852:00000014
#0815a:0014
#08452:00000014
#07752:0000000000140000
#0775a:0000000000140000
#08352:0000000000140000
#0835a:0000000000140000
#0865a:00000014
#0695a:14
#07056:14
#06852:14
#07558:00160000
#07552:00160000
#08958:14
#08954:14
#09052:14
#0905a:14
#09258:46
#09252:36
#09154:00000064
#09158:0000000000006423
#09155:0000000000000023
#0015a:00000064
#00152:00000054
#00258:14
#00254:14
#0495a:00000064
#04952:00000054
#04958:0000000000000024
#04954:0000000000000024
#05058:15
#05053:15
#00355:00000053
#00452:13
#00558:00000063
#01252:54
#01452:0000001400000000
#01655:0053000000000000
#01752:0000000000130000
#0175a:54
#0395a:0000000000000014
#03957:0064000000000000
#03852:00000014
#0375a:0000001400000000
#03752:0000000000140000
#0365a:00000014
#04052:0000000000000014
#04055:0064000000000000
#07952:0064000000000000
#07955:0000000000000014
#07957:0064000000000000
#0795a:0000000000000014
#0805a:0064000000000000
#08057:0000000000000014
#08055:0064000000000000
#08052:0000000000000014
#0855a:0000000000140000
#08552:0000000000140000
#04854:00000014
#04858:00000014
#08257:0063
#08252:0063
#08256:00000013
#0825b:00000013
#0445a:00000014
#04652:00000014
#04352:0000001400000000
#0435a:0000000000140000
#0455a:0000001400000000
#04552:0000000000140000
#03552:1c
#0013a0:0014343434343400
#001380:0000000000000054
#002380:24
#001321:0014343434343400
#001341:0000000000000054
#002341:24
#003351:00000013
#004321:23
#005381:00000013
#0063b1:23
#007381:00000013
#0083b1:23
#009321:00000000000000001300333333333333
#010321:3333
#010351:00330023
#012321:14
#012351:00240000
#014321:0014002400000000
#016351:0013000000000000
#016321:0000002300000000
#0173a1:14
#017371:00240000
#018321:0000001400000000
#018361:00000024
#020381:13
#0203b1:0000332300000000
#022351:13
#022321:0000332300000000
#026381:00000000000000000000000014343434
#027381:24
#032351:0013000000330000
#032321:0000003300000033
#033321:33
#033351:0000000000000000000000000000000000000000000000000000000000000023
#032380:0013000000330000
#0323b0:0000003300000033
#0333b0:33
#033380:0000000000000000000000000000000000000000000000000000000000000023
#039370:0014000000000000
#0393a0:0000003434343424
#040350:0014000000000000
#040320:0000003434343424
#042320:0014
#042360:00000024
#0483a0:14
#048380:00540000340000003400000024000000
#048321:14
#048341:00540000340000003400000024000000
#0493a1:0014343434343400
#049381:0000000000000054
#050381:25
#049320:0014343434343400
#049340:0000000000000054
#050330:25
#051370:14000024
#0513a0:0000003400000000
#051321:14000024
#051351:0000003400000000
#052351:14000024
#052321:0000003400000000
#0523a0:14000024
#052370:0000003400000000
#053370:14000024
#0533a0:0000003400000000
#053321:14000024
#053351:0000003400000000
#055351:14000024
#055321:0000003400000000
#055370:0000001400000000
#0553a0:00000024
#056370:14000024
#0563a0:0000003400000000
#056351:0000001400000000
#056321:00000024
#057351:14000024
#057321:0000003400000000
#057370:0000001400000000
#0573a0:00000024
#059370:14000024
#0593a0:0000003400000000
#060350:14000024
#060320:0000003400000000
#061370:14000024
#0613a0:0000003400000000
#066360:18000038000038000000000000000000
#067360:24
#075380:16260000
#075321:16260000
#077321:0000001400240000
#0773a0:0000001400240000
#079320:0014000000000000
#079350:0000003434343424
#079371:0014000000000000
#0793a1:0000003434343424
#0803a1:0014000000000000
#080371:0000003434343424
#080350:0014000000000000
#080320:0000003434343424
#082320:0013
#082360:00000023
#082371:0013
#0823b1:00000023
#083321:0000001400240000
#0833a0:0000001400240000
#0853a0:0000001400240000
#085321:0000001400240000
#0883a1:14
#088381:00540000340000003400000034000000
#089381:24
#088320:14
#088340:00540000340000003400000034000000
#089340:24
#0913a0:14
#091380:0034343434343453
#092380:26
#091321:14
#091341:0034343434343400
#091351:0000000000000053
#092321:26
#0009b0:130000000000000000000000000000000000000000000000000000000000000000000000000000000000000000000000000000000000000000000000000000000000000000000000000000000000000000000000000000000000000000000000000000000000000000000000000000000000000000000000000000000000000000000000000000000000000000000000000000000000000000000000000000000000000000000000000000000000000000000000000000000000000000000000000000000000000000000000000000000000000000000000000000000000000000000000000000000000000000000000000000000000000000000000000000000000000000000000000000000000000000000000000000000000000000000000000000000000000000000000000000000000000000000000000000000000000000000000000000000000000000000000000000000000000000000000000000000000000000000000000000000000000000000000000000000000000000000000000000000000000000000000000000000000000000000000000000000000000000000000000000000000000000000000000000000000000000000000000000000000000000000000000000000000000000000000000000000000000000535353230000000000000000000000000000000000000000000000000000000000000000000000000000000000000000000000000000000000000000000000000000000000000000000000000000000000000000000000000000000000000000000000000000000000000000000000000000000000000000000000000000000000000000000000000000000000000000000000000000000000000000000000000000000000000000000000000000000000000000000000000000000000000000000000000000000000000000000000000000000000000000000000000000000000000000000000000000000000000000000000000000000000000000000000000000000000000000000000000000000000000000000000000000000000000000000000000000000000000000000000000000000000000000000000000000000000000000000000000000000000000000000000000000000000000000000000000000000000000000000000000000000000000000000000000000000000000000000000000000000000000000000000000000000000000000000000000000000000000000000000000000000000000000000000000000000000000000000000000000000000000000000000000000000000000000000000000000000000000000000000000000000000000000000000000000000000000000000000000000000000000000000000000000000000000000000000000000000000000000000000000000000000000000000000000000000000000000000000000000000000000000000000000000000000000000000000000000000000000000000000000000000000000000000000000000000000000000000000000000000000000000000000000000000000000000000000000000000000000000000000000000000000000000000000000000000000000000000000000000000000000000000000000000000000000000000000000000000000000000000000000000000000000000000000000000000000000000000000000000000000000000000000000000000000000000000000000000000000000000000000000000000000000000000000000000000000000000000000000000000000000000000000000000000000000000000000000000000000000000000000000000000000000000000000000000000000000000000000000000000000000000000000000000000000000000000000000000000000000000000000000000000000000000000000000000000000000000000000000000000000000000000000000000000000000000000000000000000000000000000000000000000000000000000000000000000000000000000000000000000000000000000000000000000000000000000000000000000000000000000000000000000000000000000000000000000000000000000000000000000000000000000000000000000000000000000000000000000000000000000000000000000000000000000000000000000000000000000000000000000000000000000000000000000000000000000000000000000000000000000000000000000000000000000000000000000000000000000000000000000000000000000000000000000000000000000000000000000000000000000000000000000000000000000000000000000000000000000000000000000000000000000000000000000000000000000000000000000000000000000000000000000000000000000000000000000000000000000000000000000000000000000000000000000000000000000000000000000000000000000000000000000000000000000000000000000000000000000000000000000000000000000000000000000000000000000000000000000000000000000000000000000000000000000000000000000000000000000000000000000000000000000000000000000000000000000000000000000000000000000000
#000970:0053000000000000
#002920:0000000000000013
#002960:000000000000000000000000000000000000000000000000000000000000000000000000000000000000000000000000000000000000000000000000000000000000000000000000000000000000000000000000000000000000000000000000000000000000000000000000000000000000000000000000000000000000000000000000000000000000000000000000000000000000000000000000000000000000000000000000000000000000000000000000000000000000000000000000000000000000000000000000000000000000000000000000000000000000000000000000000000000000000000000000000000000000000000000000000000000000000000000000000000000000000000000000000000000000000000000000000000000000000000000000000000000000000000000000000000000000000000000000000000000000000000000000000000000000000000000000000000000000000000000000000000000000000000000000000000000000000000000000000000000000000000000000000000000000000000000000000000000000000000000000000000000000000000000000000000000000000000000000000000000000000000000000000000000000000000000000000000000000000000000000000000000000000000000000000000000000000000000000000000000000000000000000000000000000000000000000000000000000000000000000000000000000000000000000000000000000000000000000000000000000000000000000000000000000000000000000000000000000000000000000000000000000000000000000000000000000000000000000000000000000000000000000000000000000000000000000000000000000000000000000000000000000000000000000000000000000000000000000000000000000000000000000000000000000000000000000000000000000000000000000000000000000000000000000000000000000000000000000000000000000000000000000000000000000000000000000000000000000000000000000000000000000000000000000000000000000000000000000000000000000000000000000000000000000000000000000000000000000000000000000000000000000000000000000000000000000000000000000000000000000000000000000000000000000000000000000000000000000000000000000000000000000000000000000000000000000000000000000000000000000000000000000000000000000000000000000000000000000000000000000000000000000000000000000000000000000000000000000000000000000000000000000000000000000000000000000000000000000000000000000000000000000000000000000000000000000000000000000000000000000000000000000000000000000000000000000000000000000000000000000000000000000000000000000000000000000000000000000000000000000000000000000000000000000000000000000000000000000000000000000000000000000000000000000000000000000000000000000000000000000000000000000000000000000000000000000000000000000000000000000000000000000000000000000000000000000000000000000000000000000000000000000000000000000000000000000000000000000000000000000000000000000000000000000000000000000000000000000000000000000000000000000000000000000000000000000000000000000000000000000000000000000000000000000000000000000000000000000000000000000000000000000000000000000000000000000000000000000000000000000000000000000000000000000000000000000000000000000000000000000000000000000000000000000000000000000000000000000000000000000000000000000000000000000000000000000000000000000000000000000000000000000000000000000000000000000000000000000000000000000000000000000000000000000000000000000000000000000000000000000000000000000000000000000000000000000000000000000000000000000000000000000000000000000000000000000000000000000000000000000000000000000000000000000000000000000000000000000000000000000000000000000000000000000000000000000000000000000000000000000000000000000000000000000000000000000000000000000000000000000000000000000000000000000000000000000000000000000000000000000000000000000000000000000000000000000000000000000000000000000000000000000000000000000000000000000000000000000000000000000000000000000000000000000000000000000000000000000000000000000000000000000000000000000000000000000000000000000000000000000000000000000000000000000000000000000000000000000000000000000000000000000000000000000000000000000000000000000000000000000000000000000000000000000000000000000000000000000000000000053
#003960:23
#0049b0:0000000000000013
#004970:000000000000000000000000000000000000000000000000000000000000000000000000000000000000000000000000000000000000000000000000000000000000000000000000000000000000000000000000000000000000000000000000000000000000000000000000000000000000000000000000000000000000000000000000000000000000000000000000000000000000000000000000000000000000000000000000000000000000000000000000000000000000000000000000000000000000000000000000000000000000000000000000000000000000000000000000000000000000000000000000000000000000000000000000000000000000000000000000000000000000000000000000000000000000000000000000000000000000000000000000000000000000000000000000000000000000000000000000000000000000000000000000000000000000000000000000000000000000000000000000000000000000000000000000000000000000000000000000000000000000000000000000000000000000000000000000000000000000000000000000000000000000000000000000000000000000000000000000000000000000000000000000000000000000000000000000000000000000000000000000000000000000000000000000000000000000000000000000000000000000000000000000000000000000000000000000000000000000000000000000000000000000000000000000000000000000000000000000000000000000000000000000000000000000000000000000000000000000000000000000000000000000000000000000000000000000000000000000000000000000000000000000000000000000000000000000000000000000000000000000000000000000000000000000000000000000000000000000000000000000000000000000000000000000000000000000000000000000000000000000000000000000000000000000000000000000000000000000000000000000000000000000000000000000000000000000000000000000000000000000000000000000000000000000000000000000000000000000000000000000000000000000000000000000000000000000000000000000000000000000000000000000000000000000000000000000000000000000000000000000000000000000000000000000000000000000000000000000000000000000000000000000000000000000000000000000000000000000000000000000000000000000000000000000000000000000000000000000000000000000000000000000000000000000000000000000000000000000000000000000000000000000000000000000000000000000000000000000000000000000000000000000000000000000000000000000000000000000000000000000000000000000000000000000000000000000000000000000000000000000000000000000000000000000000000000000000000000000000000000000000000000000000000000000000000000000000000000000000000000000000000000000000000000000000000000000000000000000000000000000000000000000000000000000000000000000000000000000000000000000000000000000000000000000000000000000000000000000000000000000000000000000000000000000000000000000000000000000000000000000000000000000000000000000000000000000000000000000000000000000000000000000000000000000000000000000000000000000000000000000000000000000000000000000000000000000000000000000000000000000000000000000000000000000000000000000000000000000000000000000000000000000000000000000000000000000000000000000000000000000000000000000000000000000000000000000000000000000000000000000000000000000000000000000000000000000000000000000000000000000000000000000000000000000000000000000000000000000000000000000000000000000000000000000000000000000000000000000000000000000000000000000000000000000000000000000000000000000000000000000000000000000000000000000000000000000000000000000000000000000000000000000000000000000000000000000000000000000000000000000000000000000000000000000000000000000000000000000000000000000000000000000000000000000000000000000000000000000000000000000000000000000000000000000000000000000000000000000000000000000000000000000000000000000000000000000000000000000000000000000000000000000000000000000000000000000000000000000000000000000000000000000000000000000000000000000000000000000000000000000000000000000000000000000000000000000000000000000000000000000000000000000000000000000000000000000000000000000000000000000000000000000000000000000000000000000000000000000000000000000000000000000000000000000000000000000000000000000000000000053
#005970:23
#006970:0000000000000013
#0069b0:000000000000000000000000000000000000000000000000000000000000000000000000000000000000000000000000000000000000000000000000000000000000000000000000000000000000000000000000000000000000000000000000000000000000000000000000000000000000000000000000000000000000000000000000000000000000000000000000000000000000000000000000000000000000000000000000000000000000000000000000000000000000000000000000000000000000000000000000000000000000000000000000000000000000000000000000000000000000000000000000000000000000000000000000000000000000000000000000000000000000000000000000000000000000000000000000000000000000000000000000000000000000000000000000000000000000000000000000000000000000000000000000000000000000000000000000000000000000000000000000000000000000000000000000000000000000000000000000000000000000000000000000000000000000000000000000000000000000000000000000000000000000000000000000000000000000000000000000000000000000000000000000000000000000000000000000000000000000000000000000000000000000000000000000000000000000000000000000000000000000000000000000000000000000000000000000000000000000000000000000000000000000000000000000000000000000000000000000000000000000000000000000000000000000000000000000000000000000000000000000000000000000000000000000000000000000000000000000000000000000000000000000000000000000000000000000000000000000000000000000000000000000000000000000000000000000000000000000000000000000000000000000000000000000000000000000000000000000000000000000000000000000000000000000000000000000000000000000000000000000000000000000000000000000000000000000000000000000000000000000000000000000000000000000000000000000000000000000000000000000000000000000000000000000000000000000000000000000000000000000000000000000000000000000000000000000000000000000000000000000000000000000000000000000000000000000000000000000000000000000000000000000000000000000000000000000000000000000000000000000000000000000000000000000000000000000000000000000000000000000000000000000000000000000000000000000000000000000000000000000000000000000000000000000000000000000000000000000000000000000000000000000000000000000000000000000000000000000000000000000000000000000000000000000000000000000000000000000000000000000000000000000000000000000000000000000000000000000000000000000000000000000000000000000000000000000000000000000000000000000000000000000000000000000000000000000000000000000000000000000000000000000000000000000000000000000000000000000000000000000000000000000000000000000000000000000000000000000000000000000000000000000000000000000000000000000000000000000000000000000000000000000000000000000000000000000000000000000000000000000000000000000000000000000000000000000000000000000000000000000000000000000000000000000000000000000000000000000000000000000000000000000000000000000000000000000000000000000000000000000000000000000000000000000000000000000000000000000000000000000000000000000000000000000000000000000000000000000000000000000000000000000000000000000000000000000000000000000000000000000000000000000000000000000000000000000000000000000000000000000000000000000000000000000000000000000000000000000000000000000000000000000000000000000000000000000000000000000000000000000000000000000000000000000000000000000000000000000000000000000000000000000000000000000000000000000000000000000000000000000000000000000000000000000000000000000000000000000000000000000000000000000000000000000000000000000000000000000000000000000000000000000000000000000000000000000000000000000000000000000000000000000000000000000000000000000000000000000000000000000000000000000000000000000000000000000000000000000000000000000000000000000000000000000000000000000000000000000000000000000000000000000000000000000000000000000000000000000000000000000000000000000000000000000000000000000000000000000000000000000000000000000000000000000000000000000000000000000000000000000000000000000000000000000000000000000000000000000000000000053
#0079b0:23
#008960:0000000000000013
#008920:000000000000000000000000000000000000000000000000000000000000000000000000000000000000000000000000000000000000000000000000000000000000000000000000000000000000000000000000000000000000000000000000000000000000000000000000000000000000000000000000000000000000000000000000000000000000000000000000000000000000000000000000000000000000000000000000000000000000000000000000000000000000000000000000000000000000000000000000000000000000000000000000000000000000000000000000000000000000000000000000000000000000000000000000000000000000000000000000000000000000000000000000000000000000000000000000000000000000000000000000000000000000000000000000000000000000000000000000000000000000000000000000000000000000000000000000000000000000000000000000000000000000000000000000000000000000000000000000000000000000000000000000000000000000000000000000000000000000000000000000000000000000000000000000000000000000000000000000000000000000000000000000000000000000000000000000000000000000000000000000000000000000000000000000000000000000000000000000000000000000000000000000000000000000000000000000000000000000000000000000000000000000000000000000000000000000000000000000000000000000000000000000000000000000000000000000000000000000000000000000000000000000000000000000000000000000000000000000000000000000000000000000000000000000000000000000000000000000000000000000000000000000000000000000000000000000000000000000000000000000000000000000000000000000000000000000000000000000000000000000000000000000000000000000000000000000000000000000000000000000000000000000000000000000000000000000000000000000000000000000000000000000000000000000000000000000000000000000000000000000000000000000000000000000000000000000000000000000000000000000000000000000000000000000000000000000000000000000000000000000000000000000000000000000000000000000000000000000000000000000000000000000000000000000000000000000000000000000000000000000000000000000000000000000000000000000000000000000000000000000000000000000000000000000000000000000000000000000000000000000000000000000000000000000000000000000000000000000000000000000000000000000000000000000000000000000000000000000000000000000000000000000000000000000000000000000000000000000000000000000000000000000000000000000000000000000000000000000000000000000000000000000000000000000000000000000000000000000000000000000000000000000000000000000000000000000000000000000000000000000000000000000000000000000000000000000000000000000000000000000000000000000000000000000000000000000000000000000000000000000000000000000000000000000000000000000000000000000000000000000000000000000000000000000000000000000000000000000000000000000000000000000000000000000000000000000000000000000000000000000000000000000000000000000000000000000000000000000000000000000000000000000000000000000000000000000000000000000000000000000000000000000000000000000000000000000000000000000000000000000000000000000000000000000000000000000000000000000000000000000000000000000000000000000000000000000000000000000000000000000000000000000000000000000000000000000000000000000000000000000000000000000000000000000000000000000000000000000000000000000000000000000000000000000000000000000000000000000000000000000000000000000000000000000000000000000000000000000000000000000000000000000000000000000000000000000000000000000000000000000000000000000000000000000000000000000000000000000000000000000000000000000000000000000000000000000000000000000000000000000000000000000000000000000000000000000000000000000000000000000000000000000000000000000000000000000000000000000000000000000000000000000000000000000000000000000000000000000000000000000000000000000000000000000000000000000000000000000000000000000000000000000000000000000000000000000000000000000000000000000000000000000000000000000000000000000000000000000000000000000000000000000000000000000000000000000000000000000000000000000000000000000000000000000000000000000000000000000000000000053
#009920:23
#033980:0000000000000000000000000000000000000000000000000000000000000013
#0339a0:00000000000000000000000000000000000000000000000000000000000000000000000000000000000000000000000000000000000000000000000000000024
#033951:0000000000000000000000000000000000000000000000000000000000000013
#033921:00000000000000000000000000000000000000000000000000000000000000000000000000000000000000000000000000000000000000000000000000000024
#074981:14
#0749a1:0024000000000000000000000000000000000000000000000000000000000000
#074941:00140000
#074921:0000000000000000002400000000000000000000000000000000000000000000
#074981:0014
#0749a1:0000000000000000000000000000000000240000000000000000000000000000
