This file was generated by Ched 2.7.0.0.
#TITLE ""
#ARTIST ""
#DESIGNER ""
#DIFFICULTY 0
#PLAYLEVEL
#SONGID ""
#WAVE ""
#WAVEOFFSET 0
#JACKET ""
#REQUEST "ticks_per_beat 480"
#00002: 4
#BPM01: 146
#00008: 01
#TIL00: ""
#VOLUME: ""
#HISPEED 00
#MEASUREHS 00
#0481f:11
#04812:00130013
#04818:0013
#04815:0000001300130000
#0481b:0000130000001313
#04819:23
#04814:23
#02412:1313
#0241b:1313
#02418:0000130000130013
#02415:0000001300001300
#06216:0000000000000014
#0621a:24
#06212:24
#02515:0013000013000013
#02518:0000001300000013
#0251b:0000000000130000
#0261b:33331333
#02612:33331333
#04715:0000001300000000
#04712:0013000000240000
#04713:0014
#04719:0014
#0471a:0000000000000024
#04716:00000024
#01118:0000001300000000
#0111b:0013000000000000
#01119:0014
#01113:0014
#01112:0000000000000024
#01116:00000024
#0111a:0000000000240000
#02716:00001414
#05715:000000000000000000000000000000000000000000000000000000000000000000000000000000000000000000000000000000000000000000000000000000000000000000000000000000000000000000000000000000000000000000000000000000000000000000000000000000000000000000000000000000000000000000000000000000000000000000000000000000000000000000000000000000000000000000000000000000000000000000000000000000000000000000000000000000000000000000000000000000000000000000000000000000000000000000000000000000000000000000000000000000000000000000000000000000000000000000000000000000000000000000000000000000000000000000000000000000000000000000000000000000000000000000000000000000000000000000000000000000000000000000000000000000000000000000000000000000000000000000000000000000000000000000000000000000000000000000000000000000000000000000000000000000000000000000000000000000000000000000000000000000000000000000000000000000000000000000000000000000000000000000000000000000000000000000000000000000000000000000000000000000000000000000000000000000000000000000000000000000000000000000000000000000000000000000000000000000000000000000000000000000000000000000000000000000000000000000000000000000000000000000000000000000000000000000000000000000000000000000000000000000000000000000000000000000000000000000000000000000000000000000000000000000000000000000000000000000000000000000000000000000000000000000000000000000000000000000000000000000000000000000000000000000000000000000000000000000000000000000000000000000000000000000000000000000000000000000000000000000000000000000000000000000000000000000000000000000000000000000000000000000000000000000000000000000000000000000000000000000000000000000000000000000000000000000000000000000000000000000000000000000000000000000000000000000000000000000000000000000000000000000000000000000000000000000000000000000000000000000000000000000000000000000000000000000000000000000000000000000000000000000000000000000000000000000000000000000000000000000000000000000000000000000000000000000000000000000000000000000000000000000000000000000000000000000000000000000000000000000000000000000000000000000000000000000000000000000000000000000000000000000000000000000000000000000000000000000000000000000000000001400000000000000000000000000000000000000000000000000000000000000000000000000000000000000000000000000000000000000000000000000000000000000000000000000000000000000000000000000000000000000000000000000000000000000000000000000000000000000000000000000000000000000000000000000000000000000000000000000000000000000000000000000000000000000000000000000000000000000000000000000000000000000000000000000000000000000000000000000000000000000000000000000000000000000000000000000000000000000000000000000000000000000000000000000000000000000000000000000000000000000000000000000000000000000000000000000000000000000000000000000000000000000000000000000000000000000000000000000000000000000000000000000000000000000000000000000000000000000000000000000000000000000000000000000000000000000000000000000000000000000000000000000000000000000000000000000000000000000000000000000000000000000000000000000000000000000000000000000000000000000000000000000000000000000000000000000000000000000000000000000000000000000000000000000000000000000000000000000000000000000000000000000000000000000000000000000000000000000000000000000000000000000000000000000000000000000000000000000000000000000000000000000000000000000000000000000000000000000000000000000000000000000000000000000000000000000000000000000000000000000000000000000000000000000000000000000000000000000000000000000000000000000000000000000000000000000000000000000000000000000000000000000000000000000000000000000000000000000000000000000000000000000000000000000000000000000000000000000000000000000000000000000000000000000000000000000000000000000000000000000000000000000000000000000000000000000000000000000000000000000000000000000000000000000000000000000000000000000000000
#05717:00000000000000000014000000000000
#05712:0014001400000000
#0571a:0000001400000000
#05716:0014000000000000
#05710:41
#06316:0014001400220012
#06318:0000000000002212
#06312:00140000
#05916:00000014
#05912:0014000000000014
#0591a:0000001400140000
#0581a:2400000000140014
#05812:2400140000000014
#05816:0000001400001400
#06116:0014001400001400
#0611a:00140000
#06118:0000000000000034
#06016:0000000000000014
#05012:1300131300000013
#05016:0014
#0501b:1300000000131300
#05018:00130000
#05015:00000013
#0491a:00000013
#04916:00000000001300000000000000001400
#04912:0013000000000000
#04917:0013
#04913:00000013
#05312:0000000000000013
#0531b:0013000000000013
#05315:0000001300130000
#05318:1313
#05418:33331335
#05415:33331300
#05413:00000035
#05215:0000000013000013
#05218:0000001300130000
#0521b:13230013
#05212:13230013
#00214:00001212
#0021a:12120000
#00116:12121212
#00018:12121212
#0751a:12121212
#07414:12121212
#07317:12121212
#07116:14
#07112:00240024
#07216:14
#0721a:00240024
#07016:1414
#0701a:00000024
#07012:00240000
#06916:14
#0691a:00240024
#06817:0013
#06816:13
#06814:00000023
#06812:0023
#0681a:00240000
#06516:13
#0651a:00240024
#0651b:23
#0561a:0000140000000014
#05616:0000001400001414
#05612:2500000000140000
#0561f:21
#05619:25
#05516:00140000
#05514:00000018
#05515:0016
#04619:14
#04613:14
#04612:0013000000000000
#04618:0000001300000013
#0461b:0000000000130000
#04615:00130000
#01015:0000130000000013
#01013:14
#01012:0000001300130000
#01018:0013000000000000
#01019:14
#03912:0014000000140000
#0391a:0000001400000014
#03914:0000001400000000
#03918:0014000000000000
#03712:0000001400000000
#0371a:0014000000001400
#03718:0000001400000000
#03714:0014000000000000
#03118:0000000000130013
#03115:00000013
#03116:0000001300000000
#03112:0013000000000000
#03117:0013000000000000
#04312:0000001400000013
#04316:00140000
#0431a:0014000000000000
#0431b:0000000000000013
#04315:00000013
#04318:0000000000130000
#04212:1400140000000014
#0421a:14140014
#04218:0000000000140000
#04216:0014
#04214:0000001400000000
#0411a:00000014
#04112:0014001400000000
#04116:00140000
#0401a:0000140000000014
#04012:00140014
#04014:0000000000140000
#04016:0014
#04018:0000001400000000
#0381a:1400140000001414
#03816:0000001400140000
#03812:14141400
#03814:0000000000000014
#03612:2400140000001414
#03616:0000001400140000
#0361a:00141400
#03618:0000000000000014
#03617:24
#03610:41
#0351b:0013000000001300
#03516:0013000000001300
#03512:0000001300000000
#03517:0000001300000000
#03519:0000000000000033
#03514:0000000000000033
#03412:1400000013000013
#0341b:0000001300000000
#03415:0000130000130000
#03418:00001313
#0341a:14
#03218:0000001300001300
#0321b:0000000013000013
#03215:0000130000130000
#03212:1413
#0321a:14
#03318:0000001300000000
#03315:0000001300000000
#03312:0013000000000000
#04513:14
#04519:14
#0451b:0013000000000000
#04515:0000001300000013
#04512:0000000000130000
#04518:00130000
#04415:0000001300000000
#04418:0000001300000000
#03012:1400001300000000
#03018:0000130000130000
#03015:00001313
#0301b:0000000013000013
#0301a:14
#02915:0000001300000000
#02918:0000001300000000
#0291b:0013000000000000
#02812:2400000013000013
#02818:0000130000130000
#02815:0000001300001300
#0281b:0013
#0281a:24
#02810:41
#02212:13000014
#02216:0014
#02214:0000000000140000
#0221a:00140000
#02218:0000001400000000
#0221b:1300000000000013
#02118:0013000000000013
#02115:0013000000001300
#02015:0000130000130013
#02018:0000001300001300
#02012:2313
#0201b:0013
#02017:23
#02010:41
#0191b:13000013
#01916:0000000000130000
#01917:0000001300000000
#01912:00130000
#01817:13130000
#01816:0000000000000013
#0181b:00000013
#01812:0000001300000000
#01716:00000013
#01717:0000001300000000
#01712:00130000
#0161b:1300000000000013
#01615:00000013
#01617:0000001300000000
#01612:00130000
#01512:13000013
#01517:0000000000130000
#01516:0000001300000000
#0151b:00130000
#01416:13130000
#01417:0000000000000013
#01412:00000013
#0141b:0000001300000000
#00918:0000130000000013
#00919:14
#0091b:0000001300130000
#00915:0013000000000000
#00913:14
#00815:0000130000000013
#00813:14
#00812:0000001300130000
#00818:0013000000000000
#00819:14
#00713:1414
#00719:1414
#00712:0024000000000024
#00716:00240024
#0071a:0000002400240000
#0061b:0013000000000013
#00618:0000130000130000
#00615:0000001300000000
#00619:14
#00613:14
#00512:0013000000000013
#00515:0000130000130000
#00518:0000001300000000
#00519:14
#00513:14
#0041b:0013000000000013
#00418:0000130000130000
#00415:0000001300000000
#06717:13
#06712:00240024
#06710:41
#06617:13
#06616:0013
#06612:00240000
#0661a:00000024
#05115:0000130000130013
#05118:0013000000001300
#0511b:0000001300000000
#02318:0000130000130013
#02315:0013000000001300
#02312:0000001300000000
#01317:00000013
#01316:0000001300000000
#0131b:00130000
#01212:2600000000000013
#01218:26000013
#01216:0000001300000000
#0121b:00130000
#01210:41
#07612:240000000000000024000000000024000000000000000000000000000000006c
#0761a:00240000240024000000000000000000
#07616:0000000024000000000000000000000024343434343434343434343434343400
#00312:00240000000024002400000000000000
#0031a:24002400000000240000000000000000
#00316:00240000
#00314:000000000000000000000000003434343434343434343434
#06412:0000006200000000
#0641c:0000006200000000
#02752:16
#02758:16
#05956:0014001400000000
#05952:0054000000000014
#0595a:0000000000140000
#05558:16
#05552:16
#03956:0000000000140014
#03952:0000000000540000
#0395a:0000006400000000
#03954:0000003400000000
#03958:0044000000000000
#03352:0053000000001400
#0335a:00000014
#03358:0000005300000000
#03355:0000006300000000
#02152:0014
#0215a:0014
#02155:0063000000000000
#02158:0053000000000000
#00455:16
#05759:00000045
#05752:0014005400003500
#05755:000000000000000000000000000000000000000000000000000000000000000000000000000000000000000000000000000000000000000000000000000000000000000000000000000000000000000000000000000000000000000000000000000000000000000000000000000000000000000000000000000000000000000000000000000000000000000000000000000000000000000000000000000000000000000000000000000000000000000000000000000000000000000000000000000000000000000000000000000000000000000000000000000000000000000000000000000000000000000000000000000000000000000000000000000000000000000000000000000000000000000000000000000000000000000000000000000000000000000000000000000000000000000000000000000000000000000000000000000000000000000000000000000000000000000000000000000000000000000000000000000000000000000000000000000000000000000000000000000000000000000000000000000000000000000000000000000000000000000000000000000000000000000000000000000000000000000000000000000000000000000000000000000000000000000000000000000000000000000000000000000000000000000000000000000000000000000000000000000000000000000000000000000000000000000000000000000000000000000000000000000000000000000000000000000000000000000000000000000000000000000000000000000000000000000000000000000000000000000000000000000000000000000000000000000000000000000000000000000000000000000000000000000000000000000000000000000000000000000000000000000000000000000000000000000000000000000000000000000000000000000000000000000000000000000000000000000000000000000000000000000000000000000000000000000000000000000000000000000000000000000000000000000000000000000000000000000000000000000000000000000000000000000000000000000000000000000000000000000000000000000000000000000000000000000000000000000000000000000000000000000000000000000000000000000000000000000000000000000000000000000000000000000000000000000000000000000000000000000000000000000000000000000000000000000000000000000000000000000000000000000000000000000000000000000000000000000000000000000000000000000000000000000000000000000000000000000000000000000000000000000000000000000000000000000000000000000000000000000000000000000000000000000000000000000000000000000000000000000000000000000000000000000000000000000000000000000000000000000000000000002400000000000000000000000000000000000000000000000000000000000000000000000000000000000000000000000000000000000000000000000000000000000000000000000000000000000000000000000000000000000000000000000000000000000000000000000000000000000000000000000000000000000000000000000000000000000000000000000000000000000000000000000000000000000000000000000000000000000000000000000000000000000000000000000000000000000000000000000000000000000000000000000000000000000000000000000000000000000000000000000000000000000000000000000000000000000000000000000000000000000000000000000000000000000000000000000000000000000000000000000000000000000000000000000000000000000000000000000000000000000000000000000000000000000000000000000000000000000000000000000000000000000000000000000000000000000000000000000000000000000000000000000000000000000000000000000000000000000000000000000000000000000000000000000000000000000000000000000000000000000000000000000000000000000000000000000000000000000000000000000000000000000000000000000000000000000000000000000000000000000000000000000000000000000000000000000000000000000000000000000000000000000000000000000000000000000000000000000000000000000000000000000000000000000000000000000000000000000000000000000000000000000000000000000000000000000000000000000000000000000000000000000000000000000000000000000000000000000000000000000000000000000000000000000000000000000000000000000000000000000000000000000000000000000000000000000000000000000000000000000000000000000000000000000000000000000000000000000000000000000000000000000000000000000000000000000000000000000000000000000000000000000000000000000000000000000000000000000000000000000000000000000000000000000000000000000000000000000000000000
#05757:00000000000000000024000000000000
#0575a:0000006400000000
#0295a:00000014
#02952:00000014
#02955:0000006300000000
#02958:0000005300000000
#0295b:0063000000000000
#0725a:00140014
#07256:64
#07152:00140014
#07156:54
#0705a:00000014
#07052:00140000
#07056:5464
#0695a:00140014
#06956:64
#0655a:00140014
#06556:63
#06652:00140000
#0665a:00000014
#06657:53
#06656:0063
#06752:00140014
#06757:63
#06854:00000013
#06852:0013
#0685a:00140000
#06857:0053
#06856:63
#0625a:14
#06252:14
#06256:0000000000000064
#04859:13
#04854:13
#0485b:0000000000000053
#03652:14
#03657:14
#03658:0000000000000044
#02852:1400000000000053
#0285a:14
#02057:13
#02052:13
#01258:16
#01252:1600000000000063
#01256:0000005300000000
#00352:0064
#05659:15
#05652:15
#0565a:0000000000000014
#02452:13
#0245b:13
#02458:0000000000000053
#02555:0063000000000063
#02558:0000000000000053
#0255b:0000000000630000
#0265b:0053
#02652:0063
#06356:0000005400000062
#06358:0000000000000052
#0585a:0000000000000064
#05852:0000000000000014
#06156:0000006400005400
#06056:0000000000000054
#05352:0000000000000053
#0535b:0063000000000063
#05355:0000000000630000
#05458:0053
#05455:0063
#03752:0000005400000000
#03758:0000004400000000
#03754:0034000000000000
#04252:0000000000000054
#04152:0000005400000000
#0405a:0000000000000064
#03854:0000000000000034
#0355b:0063000000006300
#03556:0063000000006300
#03552:0000005300000000
#03557:0000005300000000
#03452:0000000000000053
#0325b:0000000000000063
#04455:0000006300000000
#04458:0000005300000000
#0435b:0000000000000063
#04352:0000000000000053
#03156:0000006300000000
#03152:0053000000000000
#03157:0053000000000000
#0305b:0000000000000063
#0195b:53000063
#01957:0000006300000000
#01852:0000006300000000
#01756:00000063
#01757:0000006300000000
#0165b:0000000000000053
#01657:0000006300000000
#01552:63000053
#01556:0000005300000000
#04952:0053000000000000
#04956:00000000002300000000000000000000
#0515b:0000005300000000
#05052:0000000000000063
#02352:0000006300000000
#0145b:0000005300000000
#01357:00000053
#01356:0000005300000000
#0225b:0000000000000053
#003320:0014
#003340:000000000000000000000000003434343434343434343434
#004350:26
#004320:0000000013230000
#004350:0000000000001323
#0053b0:0000000013230000
#005380:0000000000001323
#006320:0000000013230000
#006350:0000000000001323
#0083b0:0013
#008380:0000000000230000
#008380:00000013
#0083b0:0000000000000023
#009320:0013
#009350:0000000000230000
#009350:00000013
#009320:0000000000000023
#0103b0:0013
#010380:0000000000230000
#010380:00000013
#0103b0:0000000000000023
#011320:13
#011350:0023000000000000
#011350:00130000
#011320:0000002300000000
#012360:0000001300000000
#012320:00000023
#012320:0000000000000013
#013360:00230000
#013360:0000001300000000
#013320:00000023
#013371:00000013
#0143b1:23
#0143b1:0000001300000000
#014371:00000023
#015321:13
#015361:00230000
#015361:0000001300000000
#015321:0000000000230000
#015321:00000013
#016361:23
#016371:0000001300000000
#0163b1:00000023
#0163b1:0000000000000013
#017371:00230000
#017371:0000001300000000
#0173b1:00000023
#017360:00000013
#018320:23
#018320:0000001300000000
#018360:00000023
#0193b0:13
#019370:00230000
#019370:0000001300000000
#0193b0:0000000000230000
#0193b0:00000013
#020370:23
#021320:1324
#021350:0033000000000000
#0213b1:13
#021381:0033000000000000
#0213a1:0024
#0223b1:0000000000000013
#023381:0023000000000000
#023321:0000001300000000
#023351:0000000000230000
#024381:0000000000000013
#0253b1:0023000000000000
#025350:0013000000000000
#025320:0000002300000000
#0253b0:0000000000130000
#025380:0000000000000033
#0263b0:33333333
#027380:26
#025351:0000000000000013
#026321:33333333
#027321:26
#028321:0000000000000013
#029351:0033003300000000
#029321:00000024
#0293b0:0013000000000000
#029380:0000003300000000
#0293a0:00000024
#0303b0:0000000000000013
#031370:0033000000000000
#0313b0:0000002300000000
#031321:0013000000230000
#031361:0000003300000000
#0323b1:0000000000000013
#033381:0033003300000000
#0333a1:00000024
#033320:0013000000002400
#033350:0000003300000000
#034320:0000000000000013
#035360:0033000000003300
#035320:0000003300000000
#035340:0000000000000033
#036320:24
#0353b1:0013000000003300
#035371:0000003300000000
#035391:0000000000000033
#036371:24
#037321:0000001400000000
#037361:00000024
#0393a1:0000001400000000
#039361:0000000000240000
#039320:0000000000140000
#039360:0000000000000024
#0403a0:0000000000000014
#041360:0024000000000000
#041320:0000001400000000
#041360:00000024
#042320:0000000000000014
#043360:0024000000000000
#0433b0:0000000000000013
#044380:0053003300000000
#0443b0:00000023
#043321:0000000000000013
#044351:0053003300000000
#044321:00000023
#045381:0013
#0453b1:0000000000230000
#0453b1:00000013
#045381:0000000000000023
#046351:0013
#046321:0000000000230000
#046321:00000013
#046351:0000000000000023
#047381:13
#0473b1:0023000000000000
#0473b1:00130000
#047381:0000002300000000
#0483b1:0000000000000013
#049371:0023000000000000
#049320:0013000023000000
#049360:00000000005300000000000000000000
#050320:0000000000000013
#051350:0023000000000000
#0513b0:0000001300000000
#051380:0000000000230000
#0533b0:0013000000000000
#053380:0000002300000000
#053350:0000000000130000
#053320:0000000000000033
#054350:33333300
#054330:00000035
#055320:26
#0533b1:0000000000000013
#054381:33333335
#055381:26
#056361:00142400
#056321:0000003400000000
#0563a0:00001424
#056360:0000000000340000
#0573a0:0000001400000000
#057370:00000000000000000054000000000000
#057390:00000025
#057321:0000001400002500
#057351:000000000000000000000000000000000000000000000000000000000000000000000000000000000000000000000000000000000000000000000000000000000000000000000000000000000000000000000000000000000000000000000000000000000000000000000000000000000000000000000000000000000000000000000000000000000000000000000000000000000000000000000000000000000000000000000000000000000000000000000000000000000000000000000000000000000000000000000000000000000000000000000000000000000000000000000000000000000000000000000000000000000000000000000000000000000000000000000000000000000000000000000000000000000000000000000000000000000000000000000000000000000000000000000000000000000000000000000000000000000000000000000000000000000000000000000000000000000000000000000000000000000000000000000000000000000000000000000000000000000000000000000000000000000000000000000000000000000000000000000000000000000000000000000000000000000000000000000000000000000000000000000000000000000000000000000000000000000000000000000000000000000000000000000000000000000000000000000000000000000000000000000000000000000000000000000000000000000000000000000000000000000000000000000000000000000000000000000000000000000000000000000000000000000000000000000000000000000000000000000000000000000000000000000000000000000000000000000000000000000000000000000000000000000000000000000000000000000000000000000000000000000000000000000000000000000000000000000000000000000000000000000000000000000000000000000000000000000000000000000000000000000000000000000000000000000000000000000000000000000000000000000000000000000000000000000000000000000000000000000000000000000000000000000000000000000000000000000000000000000000000000000000000000000000000000000000000000000000000000000000000000000000000000000000000000000000000000000000000000000000000000000000000000000000000000000000000000000000000000000000000000000000000000000000000000000000000000000000000000000000000000000000000000000000000000000000000000000000000000000000000000000000000000000000000000000000000000000000000000000000000000000000000000000000000000000000000000000000000000000000000000000000000000000000000000000000000000000000000000000000000000000000000000000000000000000000000000000000000000000000005400000000000000000000000000000000000000000000000000000000000000000000000000000000000000000000000000000000000000000000000000000000000000000000000000000000000000000000000000000000000000000000000000000000000000000000000000000000000000000000000000000000000000000000000000000000000000000000000000000000000000000000000000000000000000000000000000000000000000000000000000000000000000000000000000000000000000000000000000000000000000000000000000000000000000000000000000000000000000000000000000000000000000000000000000000000000000000000000000000000000000000000000000000000000000000000000000000000000000000000000000000000000000000000000000000000000000000000000000000000000000000000000000000000000000000000000000000000000000000000000000000000000000000000000000000000000000000000000000000000000000000000000000000000000000000000000000000000000000000000000000000000000000000000000000000000000000000000000000000000000000000000000000000000000000000000000000000000000000000000000000000000000000000000000000000000000000000000000000000000000000000000000000000000000000000000000000000000000000000000000000000000000000000000000000000000000000000000000000000000000000000000000000000000000000000000000000000000000000000000000000000000000000000000000000000000000000000000000000000000000000000000000000000000000000000000000000000000000000000000000000000000000000000000000000000000000000000000000000000000000000000000000000000000000000000000000000000000000000000000000000000000000000000000000000000000000000000000000000000000000000000000000000000000000000000000000000000000000000000000000000000000000000000000000000000000000000000000000000000000000000000000000000000000000000000000000000000000000000000000
#058361:00142400
#0583a1:0000003400000000
#058320:00001424
#058360:0000000000340000
#0583a0:0000000000000014
#059360:0024000000000000
#059321:0014000000000000
#059361:0000002400000000
#060321:00140000
#060341:0000002400000000
#060380:0000001400000000
#0603a0:0024
#060361:0000000014240000
#0603a0:0000000000140000
#060380:00000024
#060341:00000014
#060321:0000000000000024
#060360:0000000000000014
#0613a0:0024000000000000
#061360:0000001400000000
#061320:00000034
#062320:24
#061361:00000014
#061381:0000000000000034
#0623a1:24
#0623a1:00140000
#062381:0000002400000000
#062340:0000001400000000
#062320:0024
#062361:0000000014240000
#062320:0000000000140000
#062340:00000024
#062381:00000014
#0623a1:0000000000000024
#062360:0000000000000014
#063320:0024000000000000
#063360:0000001400000000
#0633a0:0000000000240000
#063361:0000000000120032
#064321:0000002200000000
#063380:0000000000001232
#0643c0:0000002200000000
#065360:13
#066320:23
#066371:13
#0663b1:0023
#066360:0013
#067320:23
#067371:13
#0683b1:23
#068360:13
#068320:0023
#068371:0013
#0693b1:23
#069360:14
#070320:24
#070361:14
#0703a1:0024
#070360:0014
#071320:24
#071361:14
#0723a1:24
#072360:14
#073320:22
#076360:0000000000000000000000000000000014343434343434343434343434343400
#076320:000000000000000000000000000000000000000000000000000000000000002c
