This file was generated by Ched 2.7.0.0.
#TITLE ""
#ARTIST ""
#DESIGNER ""
#DIFFICULTY 0
#PLAYLEVEL
#SONGID ""
#WAVE ""
#WAVEOFFSET 0
#JACKET ""
#REQUEST "ticks_per_beat 480"
#00002: 4
#BPM01: 128
#00008: 01
#TIL00: "64'238:1, 64'237:10000"
#VOLUME: ""
#HISPEED 00
#MEASUREHS 00
#01312:0014
#00318:0016
#00312:16
#00412:0016
#00512:0016
#00518:16
#00618:0016
#00610:0041
#00718:0016
#00712:16
#0101a:0014
#01114:0014
#01218:0014
#0141a:0014
#01410:0041
#0151a:0014
#01614:0014
#01714:0014
#01818:0014
#01918:0014
#0221a:0014
#02314:0014
#02418:0014
#02512:0014
#0261a:0014
#02714:0014
#0421a:0014
#04314:0014
#04418:0014
#04512:0014
#0461a:0014
#04610:0041
#04714:0014
#04818:0014
#04912:0014
#03618:0016
#03612:26
#0361f:00000021
#03812:0016
#03912:16
#03918:0016
#04018:16
#04012:0016
#04118:16
#04112:0026
#05618:0016
#05612:26
#05812:0016
#05912:16
#06018:0016
#06112:16
#06118:0016
#06212:16
#0301f:00110000
#03012:0026
#00218:0026
#00812:0026
#03118:26
#03112:0026
#03218:26
#03212:0026
#05418:0026
#05512:26
#05518:0026
#03712:26
#03710:0041
#05712:26
#02110:0041
#05310:0041
#008320:0016
#009320:0026
#020320:0014
#021320:0024
#028380:0014
#029380:0024
#032320:00001636
#033320:36362600
#034380:0016
#035380:0026
#037380:0016
#038380:26
#050380:0014
#0513a0:0024
#052340:0014
#053320:0024
#057380:0016
#058380:26
#059320:0016
#060320:26
#062380:0016
#063380:26
#0649d0:000000000000000000000000000000000000000000000000000000000000000000000000000000000000000000000000000000000000000000000000000000000000000000000000000000000000000000000000000000000000000000000000000000000000000000000000000000000000000000000000000000000000000000000000000000000000000000000000000000000000000000000000000000000000000000000000000000000000000000000000000000000000000000000000000000000000000000000000000000000000000000000000000000000000000000000000000000000000000000001121000000000000000000000000000000000000000000000000000000000000000000000000000000000000000000000000000000000000000000000000000000000000000000000000000000000000000000000000000000000000000000000000000000000000000000000000000000000000000000000000000000000000000000000000000000000000000000000000000000000000000000000000000000000000000000000000000000000000000000000000000000000000000000000000000000000000000000000000000000000000000000000000000000000000000000000000000000000000000000000000000000000000000000000000000000000000000000000000000000000000000000000000000000000000000000000000000000000000000000000000000000000000000000000000000000000000000000000000000000000000000000000000000000000000000000000000000000000000000000000000000000000000000000000000000000000000000000000000000000000000000000000000000000000000000000000000000000000000000000000000000000000000000000000000000000000000000000000000000000000000000000000000000000000000000000000000000000000000000000000000000000000000000000000000000000000000000000000000000000000000000000000000000000000000000000000000000000000000000000000000000000000000000000000000000000000000000000000000000000000000000000000000000000000000000000000000000000000000000000000000000000000000000000000000000000000000000000000000000000000000000000000000000000000000000000000000000000000000000000000000000000000000000000000000000000000000000000000000000000000000000000000000000000000000000000000000000000000000000000000000000000000000000000000000000000000000000000000000000000000000000000000000000000000000000000000000000000000000000000000000000000000000000000000000000000000000000000000000000000000000000000000000000000000000000000000000000000000000000000000000000000000000000000000000000000000000000000000000000000000000000000000000000000000000000000000000000000000000000000000000000000000000000000000000000000000000000000000000000000000000000000000000000000000000000000000000000000000000000000000000000000000000000000000000000000000000000000000000000000000000000000000000000000000000000000000000000000000000000000000000000000000000000000000000000000000000000000000000000000000000000000000000000000000000000000000000000000000000000000000000000000000000000000000000000000000000000000000000000000000000000000000000000000000000000000000000000000000000000000000000000000000000000000000000000000000000000000000000000000000000000000000000000000000000000000000000000000000000000000000000000000000000000000000000000000000000000000000000000000000000000000000000000000000000000000000000000000000000000000000000000000000000000000000000000000000000000000000000000000000000000000000000000000000000000000000000000000000000000000000000000000000000000000000000000000000000000000000000000000000000000000000000000000000000000000000000000000000000000000000000000000000000000000000000000000000000000000000000000000000000000000000000000000000000000000000000000000000000000000000000000000000000000000000000000000000000000000000000000000000000000000000000000000000000000000000000000000000000000000000000000000000000000000000000000000000000000000000000000000000000000000000000000000000000000000000000000000000000000000000000000000000000000000000000000000000000000000000000000000000000000000000000000000000000000000000000000000000000000000000000000000000000000000000000000000000000000000000000000000000000000000000000000000000000000000000000000000000000000000000000
