This file was generated by Ched 2.7.0.0.
#TITLE ""
#ARTIST ""
#DESIGNER ""
#DIFFICULTY 0
#PLAYLEVEL
#SONGID ""
#WAVE ""
#WAVEOFFSET 0
#JACKET ""
#REQUEST "ticks_per_beat 480"
#00002: 4
#BPM01: 128
#00008: 01
#TIL00: "64'238:1, 64'237:10000"
#VOLUME: ""
#HISPEED 00
#MEASUREHS 00
#00315:00000013
#00318:0000130000130000
#00312:2300000000000013
#00215:0000232300001300
#00218:00000000002300000000000000001300
#0021a:0024
#00212:0024
#00415:0000130000000013
#00418:0000001300001300
#0041a:24
#00412:0024
#0051b:13
#00512:0013
#00518:0000000000130000
#00515:00000013
#0051a:0000000000000024
#00615:0013130000001300
#00618:0000001300130000
#00612:0013
#0061b:0000000000000013
#00610:0041
#00712:1313
#00718:0013000000001300
#00715:0000130000130000
#0071b:0000001300000013
#00812:15
#00819:00150000
#00815:0023
#01118:1300000013130013
#01115:00130000000000000000000013000000
#0111b:00000013000000000000000000000000
#01112:0000001300000000
#01215:1300000013130013
#01218:00130000000000000000000013000000
#01212:00000013000000000000000000000000
#0121b:0000001300000000
#01515:1313001300000013
#01518:00000000000000001300001300000000
#01512:0000000000130000
#0151b:00130000
#0161b:1313
#01615:0013
#01612:00000013
#01618:00000013
#01715:13001300001300000000000000000000
#01718:00130013
#0171b:00000000000000130000000000000000
#0181a:00000014
#01812:00000014
#01814:00240000
#01915:1313001300000000
#01918:00000000130000000000333300003300
#0191b:0013
#02012:0000001300000013
#0201b:0013
#02015:0000000000130000
#02018:00000013
#0211b:13000000000000000000003300000000
#02118:0013000013000000
#02115:00130000
#02112:0000001300000000
#02110:0041
#02218:0000000000130013
#02215:00000013
#02212:00000000000000240000000000000000
#02315:0000000000130013
#02318:00000013
#02312:24
#0231a:00000000000000240000000000000000
#0251b:0000000000130000
#02518:00000013
#02515:0000000000000013
#02514:00000000000000240000000000000000
#02612:13140000
#0261a:00140000
#02618:00000024
#0271b:0013
#02715:0000000000130000
#02718:00000013
#02712:0000000000000013
#02714:00240000
#02812:00130000
#0281b:00130000
#02814:00000000000000130000000000000000
#02819:00000000000000130000000000000000
#0281a:24
#0341b:0013
#03712:1313
#03718:0013000000001300
#03715:0000130000130000
#0371b:0000001300000013
#03710:0041
#0381b:0013
#03815:2300000000130000
#03818:00000013
#03812:0000000000000013
#0391b:0013
#03918:0000000000130000
#03915:00000013
#03912:0000000000000013
#0401b:13
#0411b:1300000023230000
#04115:0013000000002323
#04118:00130000
#04112:0000001300000000
#04612:0013
#04618:2300000000130000
#04615:00000023
#0461b:000033330000000000000000000000000000000000230000
#04610:0041
#04715:1313000000530000
#04712:0013
#0471b:00000013
#04718:0000232300000053
#04713:000000000000000000000000005300000000000000000000
#04714:000000000000005300000000
#0471a:000000000000000000000000000000000000005300000000
#04719:000000000053
#04815:13
#04818:0013000000000000
#04812:00232500
#0481b:0000002300000000
#0491b:1300000013130000
#04915:0013000000001313
#04918:00130000
#04912:0000001300000000
#05018:13001313
#05015:0013000000130000
#0501b:00230000
#05012:0000002300000000
#05212:130000000000000000003333
#05215:0013000013000000
#05218:00130000
#0521b:0000001300000000
#05312:13
#05315:000000003333130000000000
#05310:0041
#0571b:13
#05718:0013000000000000
#05715:00130000
#05712:0000001300000000
#05812:13
#0581b:0013000000000000
#05815:00000000130000130000000000000000
#05818:00000000001300000000000000001300
#05912:1300000023000023
#0591b:0023
#05918:0000000000230000
#05915:00000023
#0611b:1300000023230000
#06115:0013000000000000
#06118:00130000
#06112:0000001300002323
#06015:0013
#0601b:23
#01318:13
#01315:00130000000000000000000000000000
#0131b:00000013000000000000000000000000
#01312:0000001300000000
#0141b:0013
#01410:0041
#03218:2300001300130000
#03215:00002300000000230000000000001300
#03212:00230024
#03318:0013001300000000
#03312:0000000000000000240000000000260000000000330000133300000033000000
#0331a:24
#03612:0000260024130000
#0361b:0000000000130000
#03618:26
#0361a:0024
#0361f:00000021
#04215:00000000002300000000000013000000
#04218:2300230000000013
#04212:0023000000000000
#0421b:00000000000000230000000000000000
#04315:1300000013130000
#04318:000013000000000000130000000000000000000000000000
#04312:000000000013000000000000000000000000000000000000
#0431b:0000000000001313
#04418:0000000013130000
#04412:000033330000000000000000000000000000130000130000
#04415:23
#04518:1300000000130000
#04515:001300000000000000000000
#0451b:000000000013000033000033000000000000000000000000
#04512:0000000000001313
#05115:13
#05118:0013
#02912:0013
#02915:00000013
#03018:13000000000000240000000000000000
#0301b:00130000
#03012:00000000000000240000000013000000
#0301f:00110000
#0301a:00000000000000000000000000000024
#03014:00000000000000000000000000000024
#0311b:00130000
#03112:00000000000000240000000023000000
#03118:00000000000000240000000000000000
#03115:0000000000000023
#00912:0024
#0091a:0024
#01018:23
#01015:23
#01012:00003300333300000000000000000000
#0101b:00003300333300000000000000000000
#0241a:24000000000000000000000000000024
#02412:00000000000000240000000000000000
#03518:0026
#03512:00000026
#0541a:0000000024240000
#05414:0000000024240000
#06218:23000000000000230000000000000000
#06215:0023000000000000
#0621b:00230000
#06212:00000000002300000000000000000000
#05512:2424000000000000
#05518:2424000000000000
#0551a:0000000024240000
#05514:0000000024240000
#05612:2424000000000000
#05618:2424000023000000
#05615:0023
#0001b:0000000000003333
#0011b:33330033000033000000330033003300
#0631c:52
#00258:16
#0055b:53
#0055a:0000000000000014
#00952:0014
#0095a:0014
#01058:53
#0105b:00000013
#01055:63
#01052:00000013
#01458:00000013
#0145b:0053
#0165b:63
#0195b:0063
#02058:13
#02158:0053
#03052:00000000000000140000000000000000
#03058:00000000000000140000000000000000
#0305a:00000000000000000000000000000014
#03054:00000000000000000000000000000014
#03452:16
#0345b:0053
#03558:0016
#03552:00000016
#03658:16000016
#03652:0000160064231600
#0365b:0000000000230000
#0365a:0054
#0405b:53
#04058:00140000
#04852:00000015
#05255:0063
#05352:63
#05355:0063
#05855:00000000000000530000000000000000
#05952:53
#0605b:53
#06058:00140000
#06055:0053
#06258:00000000000000530000000000000000
#01854:00000000000000140000000000000000
#03352:0000000000000000000000000000560000000000000000230000000000000000
#00358:00530000
#0175b:00000000000000630000000000000000
#01758:00000053
#03152:00000000000000140000000000000000
#03158:00000000000000140000000000000000
#0455b:000000000053000000000000000000000000000000000000
#05155:53
#05152:000000000013000000000000000000000000000000000000
#05158:0063
#0515b:000000000000000000000000000000000013000000000000
#02252:00000000000000140000000000000000
#02352:14
#0235a:00000000000000140000000000000000
#0245a:14000000000000000000000000000014
#02452:00000000000000140000000000000000
#02554:00000000000000140000000000000000
#0285a:14
#03852:00140000
#03855:53
#04455:53
#04452:0000001300000000
#04658:63
#0465b:0000001300000000
#05659:00000015
#05652:00000015
#05658:0053
#05655:0053
#02754:00140000
#02658:00000014
#000380:0000000000130000
#0003b0:0000000000003333
#0013b0:33330033000033003300330033003300
#002380:26
#003380:00130000
#0033b0:0023
#0053b0:13
#005380:0000332300000000
#008350:0013
#008320:00000033
#009350:33
#009320:00230000
#010380:13
#0103b0:00003300333300330033330023000000
#010351:13
#010321:00003300333300330033330023000000
#013381:0000000014240000
#013341:0000000000001424
#0143b1:0013
#014381:00000023
#0163b1:13
#016381:00230000
#0173b1:00000000000000130000000000000000
#017381:0000000000333300
#0183b1:23
#018341:00000000140000240000000000000000
#0193b1:0013
#019381:00000000000000000000333300003300
#020381:23
#021381:0013
#0213b1:00000000000000000000003333000000
#022381:26
#022321:00000000143400240000000000000000
#0233a1:00000000143434240000000000000000
#024321:00000000143400240000000000000000
#0243a1:00000000000000000000000014340024
#025341:00000000143400240000000000000000
#026381:00000000000000140000340024000000
#027341:1434240000000000
#033321:0000000000000000000000000000160000000000330000533300000033000000
#034321:26
#0343b1:0013
#035381:0026
#036321:0000000014532600
#0363a0:0014
#0363b0:0000000000530000
#036380:00000026
#038350:13
#038320:00240000
#039380:1323000000000000
#039350:0000132300000000
#0403b0:13
#040380:00240000
#040320:00001424
#044350:13
#044320:000033330000330000230000000000000000000000000000
#0453b0:000000000013000033000033000000000000000000000000
#045380:0023
#046380:13
#0463b0:000033330000330000230000000000000000000000000000
#048320:0000000015352500
#051350:13
#051320:000000000023000000000000000000000000000000000000
#051380:0013
#0513b0:000000000000000000000000000000000023000000000000
#052350:0013
#052320:000000000000000000003333
#053320:33
#053350:000000003333330000000000
#054320:23
#056380:0013
#056390:00000025
#056351:0013
#056321:00000025
#0573a1:00001434
#057381:0000000000340024
#058351:00000000000000130000000000000000
#058321:00000023
#059321:13
#059351:00230000
#0603b1:13
#060381:00240000
#060351:0013
#060321:00000023
#062381:00000000000000130000000000000000
#0633c1:22
#047920:0013
#047950:0000000000230000
#0479b0:00000013
#047980:0000000000000023
#0649d0:000000000000000000000000000000000000000000000000000000000000000000000000000000000000000000000000000000000000000000000000000000000000000000000000000000000000000000000000000000000000000000000000000000000000000000000000000000000000000000000000000000000000000000000000000000000000000000000000000000000000000000000000000000000000000000000000000000000000000000000000000000000000000000000000000000000000000000000000000000000000000000000000000000000000000000000000000000000000000000001121000000000000000000000000000000000000000000000000000000000000000000000000000000000000000000000000000000000000000000000000000000000000000000000000000000000000000000000000000000000000000000000000000000000000000000000000000000000000000000000000000000000000000000000000000000000000000000000000000000000000000000000000000000000000000000000000000000000000000000000000000000000000000000000000000000000000000000000000000000000000000000000000000000000000000000000000000000000000000000000000000000000000000000000000000000000000000000000000000000000000000000000000000000000000000000000000000000000000000000000000000000000000000000000000000000000000000000000000000000000000000000000000000000000000000000000000000000000000000000000000000000000000000000000000000000000000000000000000000000000000000000000000000000000000000000000000000000000000000000000000000000000000000000000000000000000000000000000000000000000000000000000000000000000000000000000000000000000000000000000000000000000000000000000000000000000000000000000000000000000000000000000000000000000000000000000000000000000000000000000000000000000000000000000000000000000000000000000000000000000000000000000000000000000000000000000000000000000000000000000000000000000000000000000000000000000000000000000000000000000000000000000000000000000000000000000000000000000000000000000000000000000000000000000000000000000000000000000000000000000000000000000000000000000000000000000000000000000000000000000000000000000000000000000000000000000000000000000000000000000000000000000000000000000000000000000000000000000000000000000000000000000000000000000000000000000000000000000000000000000000000000000000000000000000000000000000000000000000000000000000000000000000000000000000000000000000000000000000000000000000000000000000000000000000000000000000000000000000000000000000000000000000000000000000000000000000000000000000000000000000000000000000000000000000000000000000000000000000000000000000000000000000000000000000000000000000000000000000000000000000000000000000000000000000000000000000000000000000000000000000000000000000000000000000000000000000000000000000000000000000000000000000000000000000000000000000000000000000000000000000000000000000000000000000000000000000000000000000000000000000000000000000000000000000000000000000000000000000000000000000000000000000000000000000000000000000000000000000000000000000000000000000000000000000000000000000000000000000000000000000000000000000000000000000000000000000000000000000000000000000000000000000000000000000000000000000000000000000000000000000000000000000000000000000000000000000000000000000000000000000000000000000000000000000000000000000000000000000000000000000000000000000000000000000000000000000000000000000000000000000000000000000000000000000000000000000000000000000000000000000000000000000000000000000000000000000000000000000000000000000000000000000000000000000000000000000000000000000000000000000000000000000000000000000000000000000000000000000000000000000000000000000000000000000000000000000000000000000000000000000000000000000000000000000000000000000000000000000000000000000000000000000000000000000000000000000000000000000000000000000000000000000000000000000000000000000000000000000000000000000000000000000000000000000000000000000000000000000000000000000000000000000000000000000000000000000000000000000000000000000000000000000000000000000000000000000000000000000000000000000
