This file was generated by Ched 2.7.0.0.
#TITLE ""
#ARTIST ""
#DESIGNER ""
#DIFFICULTY 0
#PLAYLEVEL
#SONGID ""
#WAVE ""
#WAVEOFFSET 0
#JACKET ""
#REQUEST "ticks_per_beat 480"
#00002: 4
#BPM01: 128
#00008: 01
#TIL00: "64'238:1, 64'237:10000"
#VOLUME: ""
#HISPEED 00
#MEASUREHS 00
#00318:0014
#00312:14
#00314:00000014
#00412:0014
#00418:14
#01012:0014
#01018:00000014
#0111a:0014
#01112:14
#01114:00000014
#0121a:14
#01212:0014
#01218:00000014
#01412:0014
#01410:0041
#01512:14
#01814:0014
#02212:0014
#02218:00000014
#0231a:0014
#02312:14
#02314:00000014
#02718:0014
#02712:15
#02714:00000014
#0421a:0014
#04314:0014
#0431a:14
#04418:0014
#04414:14
#04618:0014
#04612:14
#04614:00000014
#04610:0041
#04714:0014
#0471a:14
#04718:00000014
#04912:0014
#04918:14000014
#05712:14
#0571a:00140000
#05714:0014
#06012:0014
#06018:14000014
#06112:0014
#06114:14
#0611a:00140000
#06118:00000014
#06214:1414
#0621a:00140000
#0051a:14
#00514:0014
#00518:00000014
#00614:14000014
#0061a:0014
#00610:0041
#0071a:14
#00712:0014
#00718:00000014
#00812:14
#00818:0024
#01312:14
#0161a:0014
#0171a:14
#01918:14
#02018:0014
#02114:14
#02110:0041
#0241a:14
#02412:0015
#02519:15
#02514:0014
#02518:00000014
#02614:14
#02619:0015
#02818:14
#02814:0014
#0371a:0014
#03714:00000014
#03712:26
#03710:0041
#03818:14
#03812:00140000
#04014:0014
#04018:00000014
#04114:14
#04118:00140000
#04112:0026
#04518:14
#04512:0014
#04812:14
#0481a:0014
#04814:00000014
#05014:14
#05018:0014
#05114:0014
#05612:0014
#05618:26000026
#0581a:0014
#05912:14
#05918:0014
#05914:00000014
#03618:2414
#03614:00240000
#0361f:00000021
#0301f:00110000
#03012:0024
#0301a:0024
#0021a:0024
#05412:0026
#05518:26
#05512:0026
#03112:24
#0311a:24
#03113:0024
#03119:0024
#03213:24
#03219:24
#03218:0024
#03214:00000024
#03318:24
#03314:00240000
#0331a:0024
#03518:0024
#03514:00000024
#05310:0041
#02452:0015
#02559:15
#02659:0015
#02752:15
#02854:0054
#05058:0054
#05154:0064
#05452:0016
#05552:0016
#05558:16
#05658:16
#05754:0064
#06254:0064
#0345a:14
#008380:0014
#0093a0:34
#009380:0024
#0133a0:0000000014343434
#0143a0:24
#015320:0014
#016320:24
#0173a0:0014
#0183a0:24
#019320:0014
#020320:24
#0213a0:0014
#0223a0:24
#028340:0014
#029320:0024
#0333a0:0000000014343434
#0343a0:24
#034320:0014
#035320:24
#0383a0:0014
#039380:34
#0393a0:0034
#040380:24
#041320:0016
#042320:26
#050380:0014
#0513a0:24
#051340:0014
#052320:24
#052380:0014
#0533a0:34
#053380:0034
#0543a0:24
#057340:0014
#058320:24
#062340:0014
#063320:24
#0649d0:000000000000000000000000000000000000000000000000000000000000000000000000000000000000000000000000000000000000000000000000000000000000000000000000000000000000000000000000000000000000000000000000000000000000000000000000000000000000000000000000000000000000000000000000000000000000000000000000000000000000000000000000000000000000000000000000000000000000000000000000000000000000000000000000000000000000000000000000000000000000000000000000000000000000000000000000000000000000000000001121000000000000000000000000000000000000000000000000000000000000000000000000000000000000000000000000000000000000000000000000000000000000000000000000000000000000000000000000000000000000000000000000000000000000000000000000000000000000000000000000000000000000000000000000000000000000000000000000000000000000000000000000000000000000000000000000000000000000000000000000000000000000000000000000000000000000000000000000000000000000000000000000000000000000000000000000000000000000000000000000000000000000000000000000000000000000000000000000000000000000000000000000000000000000000000000000000000000000000000000000000000000000000000000000000000000000000000000000000000000000000000000000000000000000000000000000000000000000000000000000000000000000000000000000000000000000000000000000000000000000000000000000000000000000000000000000000000000000000000000000000000000000000000000000000000000000000000000000000000000000000000000000000000000000000000000000000000000000000000000000000000000000000000000000000000000000000000000000000000000000000000000000000000000000000000000000000000000000000000000000000000000000000000000000000000000000000000000000000000000000000000000000000000000000000000000000000000000000000000000000000000000000000000000000000000000000000000000000000000000000000000000000000000000000000000000000000000000000000000000000000000000000000000000000000000000000000000000000000000000000000000000000000000000000000000000000000000000000000000000000000000000000000000000000000000000000000000000000000000000000000000000000000000000000000000000000000000000000000000000000000000000000000000000000000000000000000000000000000000000000000000000000000000000000000000000000000000000000000000000000000000000000000000000000000000000000000000000000000000000000000000000000000000000000000000000000000000000000000000000000000000000000000000000000000000000000000000000000000000000000000000000000000000000000000000000000000000000000000000000000000000000000000000000000000000000000000000000000000000000000000000000000000000000000000000000000000000000000000000000000000000000000000000000000000000000000000000000000000000000000000000000000000000000000000000000000000000000000000000000000000000000000000000000000000000000000000000000000000000000000000000000000000000000000000000000000000000000000000000000000000000000000000000000000000000000000000000000000000000000000000000000000000000000000000000000000000000000000000000000000000000000000000000000000000000000000000000000000000000000000000000000000000000000000000000000000000000000000000000000000000000000000000000000000000000000000000000000000000000000000000000000000000000000000000000000000000000000000000000000000000000000000000000000000000000000000000000000000000000000000000000000000000000000000000000000000000000000000000000000000000000000000000000000000000000000000000000000000000000000000000000000000000000000000000000000000000000000000000000000000000000000000000000000000000000000000000000000000000000000000000000000000000000000000000000000000000000000000000000000000000000000000000000000000000000000000000000000000000000000000000000000000000000000000000000000000000000000000000000000000000000000000000000000000000000000000000000000000000000000000000000000000000000000000000000000000000000000000000000000000000000000000000000000000000000000000000000000000000000000000000000000000000000000000000000000000000000000000000000000000
