This file was generated by Ched 2.7.0.0.
#TITLE ""
#ARTIST ""
#DESIGNER ""
#DIFFICULTY 0
#PLAYLEVEL
#SONGID ""
#WAVE ""
#WAVEOFFSET 0
#JACKET ""
#REQUEST "ticks_per_beat 480"
#00002: 4
#BPM01: 142
#00008: 01
#TIL00: ""
#VOLUME: ""
#HISPEED 00
#MEASUREHS 00
#02518:14
#05412:0016
#05418:26
#0541f:21
#0011a:14
#0021a:14
#00312:14
#00412:14
#00518:14
#00510:41
#00614:14
#00814:14
#0091a:14
#01012:14
#01318:14
#01414:14
#01718:2616
#01710:41
#00718:14
#0111a:14
#01110:41
#01212:14
#0151a:14
#01612:14
#01812:1616
#02118:2616
#02212:1616
#02614:14
#02618:0014
#02712:2616
#02710:41
#02818:1616
#03112:2616
#03218:1616
#0371a:14
#03812:14
#03918:14
#03910:41
#04014:14
#0411a:14
#05718:1616
#05612:2616
#05812:16
#05818:0016
#0441f:11
#04814:24
#04818:0024
#05012:24
#0501a:0024
#03512:26
#04913:24
#04919:0024
#06714:24
#05112:25
#05119:0025
#05212:26
#0461a:34
#0451a:34
#05510:41
#019380:1626
#020320:1626
#023380:1626
#024320:1626
#029320:1626
#030380:1626
#033320:1626
#034380:1626
#035320:16
#036320:3626
#042320:14
#043320:24
#044380:14
#0453a0:34
#0463a0:34
#0473a0:24
#052320:16
#053320:0026
#055380:1626
#059320:1626
#060380:1424
#061340:1424
#0623a0:1424
#063320:1424
#0643a0:14
#064380:0024
#065320:14
#065340:0024
#066380:14
#0663a0:0024
#067340:14
#067320:0054
#070320:24
