This file was generated by Ched 2.7.0.0.
#TITLE ""
#ARTIST ""
#DESIGNER ""
#DIFFICULTY 0
#PLAYLEVEL
#SONGID ""
#WAVE ""
#WAVEOFFSET 0
#JACKET ""
#REQUEST "ticks_per_beat 480"
#00002: 4
#BPM01: 142
#00008: 01
#TIL00: ""
#VOLUME: ""
#HISPEED 00
#MEASUREHS 00
#02618:00140000
#02614:1414
#0671a:0014
#06718:26
#05314:00000014
#05318:0014
#05416:00140000
#05418:00000014
#05412:0014
#0541a:24
#0541f:21
#0551a:0014
#05512:14
#05516:00140000
#05510:41
#05616:00140014
#0561a:0014
#05612:24
#05716:00140000
#05712:14
#0011a:1414
#00212:1414
#00318:1414
#00414:1414
#0051a:1414
#00512:00140014
#00510:41
#00618:1414
#00614:00140000
#00712:1414
#0071a:00140014
#00814:1414
#00818:00140000
#0091a:14
#00914:00140000
#00918:0014
#00912:00000014
#01018:14
#01014:00140000
#0101a:0014
#01112:14
#01118:00140000
#01114:0014
#0111a:00000014
#01110:41
#01214:14
#01218:00140000
#01212:0014
#0131a:14
#01312:00140000
#01318:0014
#01314:00000014
#0141a:14
#01412:00140000
#01418:0014
#01414:00000014
#01614:14
#01712:00140000
#01718:0014
#01714:00000014
#0171a:24
#01710:41
#0181a:14
#01818:0014
#01812:00140000
#01914:14
#01918:00140000
#01912:0014
#0191a:00000014
#02012:14
#02016:00140000
#0201a:0014
#0211a:00140000
#02114:0014
#02118:00000014
#02112:24
#02212:14
#02214:0014
#0221a:00140000
#02318:14
#02314:00140000
#0231a:0014
#02312:00000014
#0241a:14
#02416:00140000
#02412:0014
#0251a:14
#02714:00140000
#02718:0014
#02712:00000014
#0271a:24
#02710:41
#02818:14
#02814:00140000
#0281a:0014
#02912:14000014
#0291a:00140000
#02916:0014
#03018:14
#03014:00140000
#0301a:0014
#03118:00140000
#03114:0014
#0311a:00000014
#03112:24
#03214:14
#03218:00140000
#03212:0014
#0331a:14000014
#03312:00140000
#03316:0014
#03414:14
#03418:00140000
#03412:0014
#0341a:00000014
#03612:14
#04112:14
#04116:0014
#04212:14
#0421a:0000000000003414
#04219:0000000000340000
#05816:00140000
#05814:00000014
#0581a:0014
#05812:14
#05912:0014
#0591a:14
#05916:00140000
#0441f:11
#04412:24
#0441a:0024
#04812:24
#04814:00240000
#04816:0024
#04818:00000024
#05012:24
#05016:00240024
#0501a:0024
#05112:24
#05115:00000000000000000000000000000034
#05114:0000000000000034
#05113:00000000000000000000000000340000
#03512:26
#04512:24
#0451a:0024
#04614:24
#04618:0024
#04714:24
#04718:0024
#0491a:24
#04918:00240000
#04916:0024
#04914:00000024
#03717:0034343400000000
#0371a:0000000000343434
#03915:0034343400000000
#03912:0000000000343434
#03910:41
#04012:0000000000000034
#04013:00000034000000000000003400000000
#04014:0000003400000000
#02654:0014
#0675a:0054
#06758:56
#05255:16
#03552:66
#0555a:0014
#0575a:00000014
#01652:0014
#01654:64
#01858:0054
#0185a:00000014
#0205a:0014
#02254:0064
#02252:00000014
#02452:0014
#02558:0014
#0255a:64
#0285a:0064
#02858:00000014
#0305a:0014
#03252:0054
#03254:00000014
#03654:0014
#03652:54
#03858:00000014
#04254:00140000
#04252:54
#0425a:0000000000000064
#04152:54
#04156:0024
#05952:0014
#0153a0:14000024
#015380:00343400
#016340:14
#016320:0024
#018380:0014
#0183a0:00000024
#022340:0014
#022320:00000024
#0253a0:14
#025380:0024
#0283a0:0014
#028380:00000024
#032320:0014
#032340:00000024
#035320:16
#036320:34
#036340:0024
#0373a0:1400000000343434
#037370:0034343434000000
#0383a0:3434
#038390:0034003400340000
#038380:00340024
#039320:1400000000343434
#039350:0034343434000000
#040320:3400000000000034
#040330:00000034000000000000003400000000
#040340:0000003400000000
#040350:0034
#041320:34
#041360:0054
#042320:34
#042340:00240000
#042380:0014
#042390:0000000000340000
#0423a0:0000000000003434
#043380:00000024
#051320:14000034
#051330:00003400000000000000340000340000
#051340:0000340034000034
#051350:00000000000034000000000000000034
#052350:26
#0573a0:00001424
#0603a0:1434
#060380:00340024
#061320:1434
#061340:00340024
#062380:1434
#0623a0:00340024
#063340:1434
#063320:00340024
#064390:1535
#064370:00350025
#065320:1535
#065340:00350025
#066380:16
#066360:00260000
#066320:0016
#066340:00000026
#067380:16
#0673a0:0054
#070380:24
