This file was generated by Ched 2.7.0.0.
#TITLE ""
#ARTIST ""
#DESIGNER ""
#DIFFICULTY 0
#PLAYLEVEL
#SONGID ""
#WAVE ""
#WAVEOFFSET 0
#JACKET ""
#REQUEST "ticks_per_beat 480"
#00002: 4
#BPM01: 140
#00008: 01
#TIL00: ""
#VOLUME: ""
#HISPEED 00
#MEASUREHS 00
#00618:13140016
#00613:0025
#00615:23
#00015:14
#00017:0014
#0001a:24
#00012:0024
#00115:14
#00117:0014
#00112:0024
#0011a:24
#00215:14
#00217:0014
#0021a:24
#00212:0024
#00315:0012
#00319:0012
#00312:26
#00318:26
#0041b:0013000000130000
#00415:000000000013000000000000000000000000000000000000
#00418:000000000000130000000013000000000000000000000000
#00412:2600001300000013
#00410:41
#00515:130000000000130000000013000000000000000000000000
#00512:0013000000130000
#00518:000000000013000000000000000000000000000000000000
#0051b:0000001300000013
#00715:0012
#00719:0012
#00712:26
#00718:26
#00816:130000000000130000000000000000000000130000000013
#0081b:000000000000130000000000000000000000130000000013
#00812:0013
#00817:0013
#0081a:24
#00912:000000000000130013000013000000000000000000000000
#00917:000000000000130013000013000000000000000000000000
#0091b:00000013
#00916:00000013
#00919:0000000000000013
#00914:0000000000000013
#01012:130000000000000000000000130000000000000000000013
#01017:130000000000000000000000130000000000000000000013
#0101b:00130013
#01016:00130013
#0111b:000000000000130013000013000000000000000000000000
#01116:000000000000130013000013000000000000000012000012
#01118:0000000000001212
#01212:000000000000140000000000000000000000000000000014
#01217:000000000000130000000000000000000000000000000013
#01219:0013
#01214:0014
#0121b:00000013
#01216:00000014
#0121a:24
#0131b:000000000000130013000013000000000000000000000000
#01316:000000000000140014000014000000000000130000000000
#0131a:00000014
#01312:0000000000000014
#01317:0000000000000013
#0141a:14
#01416:130000000000000000000000000000000000000000000014
#01415:00130000
#01414:0013
#01413:00000013
#01419:00140000
#01418:0014
#01417:00000014
#01412:000000000000000000000000000000000000000000000013
#0151a:0014000000000000
#01516:0013000000000000
#01518:0000000000130000
#01519:000000000013
#01515:0000000000230000
#01514:000000000023
#01612:2414140000000000
#01618:0000241414000000
#01614:0000000024141400
#0161a:2400000000002414
#01616:000000000000000000000000000000000000000000000013
#01610:41
#01716:0014000000140014
#01712:000000131300000000140000
#01717:000000000000000000000013000000000000000000000000
#0171a:00000014
#01812:1400000000002414
#0181a:2414140000000000
#01814:0000241414000000
#01818:0000000024141400
#01817:000000000000000000000000000000000000000000000013
#01918:0000001400000000
#01914:00241400
#0191a:0000140024000014
#01912:0000002400141400
#01917:000000000000000000000000000000000013000000000000
#01916:000000240000000000000000000000000000000000000013
#02014:0014000000002400
#02017:0000140000000014
#02015:0000001400000000
#02013:0014
#02016:0000000000140000
#02019:00000014
#02012:000000000000240000000000000000000000000000000013
#0201a:24
#02018:0024
#0211a:0014000000001400
#02116:000000000000130013000000000000000000000000140000
#0211b:000000000000000000000013000000000000000000000000
#02112:0000000000140000
#02218:0014000000002400
#02215:0000140000000014
#02217:0000001400000000
#02219:0014
#02216:0000000000140000
#02213:00000014
#0221b:000000000000000000000000000000000000000000000013
#02212:14
#0221a:24240000
#02214:0024
#02312:0014000000000014
#02316:00141414
#0231a:0000001400140000
#02416:0014001400000000
#02412:00160016
#02418:260000000000000000000000160000000013000000160000
#02415:000000000000001300000000
#02410:41
#02512:1600000016000016
#02516:0014001400000000
#02518:000000160000001300160000
#02515:000000000000000000000000000000000013000000000000
#02616:0014000000140000
#02612:00140000
#0261a:00000014
#02716:0000000000140014
#02718:2626
#02712:00260026
#02812:0014000000001414
#02815:001300
#0281a:00140000
#02818:260000000000000000000000000000000013000000000013
#02912:14140000
#0291a:0014000000000000
#02918:001300
#03016:140000000014000000140000140000000014000000140000
#0301b:000000000000000013000000000000000000000000000013
#03012:000000000000000000000013000000000000000013000000
#0341a:0014
#03412:0014
#03415:140000000000000000140000000000000013000000000000
#03418:000000000000000000000000000000000013000000000000
#03417:0014000000000000
#03512:0014000000140000
#0351a:0014000000000014
#03519:00140000
#03513:00140000
#03514:0000001400000000
#03518:0000001400000000
#03516:00000014
#0361a:0000001400140000
#03612:0014000000000014
#03616:00140014
#03614:0014
#03712:0000001400130000
#0371a:0014000000000000
#03716:0000140000000013
#03718:0014
#03717:0000000000130000
#03719:00000013
#0371b:0000000000000013
#03714:00000013
#03819:00130000
#03814:00130000
#03816:0000001300130000
#0381b:0000001300130000
#03817:0023
#03812:0023
#0391a:0014001400000014
#03915:000000140000000000140000000000000000000000000023
#03912:00140014
#03917:00140014
#04012:0013000000000000
#04017:0013000000000000
#04016:0013
#0401b:0013
#0411a:14
#04112:0013000000130000
#04118:000000000013000000000000000000000000000000000000
#04115:000000000000130000000013000000000000000000000000
#0411b:0000001300000013
#0411f:11
#04218:130000000000130000000013000000000000000000000000
#0421b:0013000000130000
#04215:000000000013000000000000000000000000000000000000
#04212:0000001300000013
#04315:130000000013000000000000000000000000000000000000
#0431b:0013000000130000
#04318:000000000000130000000013000000000000000000000000
#04312:0000001300000013
#04412:00130013
#04417:00130000
#04419:0000001300000000
#0441b:0000000013000013
#04414:0000001300000000
#04416:0000000013000013
#04415:23
#04418:23
#04512:0013000013000013
#04517:0013000013000013
#0451b:00130000
#04516:00130000
#04514:0000001300000000
#04519:0000001300000000
#0461a:1424
#04617:00140024
#04615:2414
#04612:00240014
#0481a:0014000000000014
#04816:0000001400140014
#0481f:21
#0501a:0014000014000000
#05012:000000000000000000000000000000000014000000000000
#05016:000000000000000000140000000000000014000000000000
#0511b:0013000013000013
#05119:00130013
#05117:0000001300130000
#05112:0000002300130000
#05116:0023000000000013
#05114:00230013
#0521a:0000001400000000
#05212:0014000013000013
#05216:0000140000130000
#0521b:0000000000130000
#05214:00000013
#05217:0000000000000013
#05219:00000013
#05312:0000001400130000
#05316:0000140000000013
#05317:0000000000130000
#0531b:0000000013000013
#0531a:0014000000000000
#05314:00000013
#05319:00000013
#0541a:0000140000001414
#05412:0014
#05512:0014000000152515
#05519:0000140000251525
#05513:14
#0551a:0000001400000000
#05517:14
#05515:00140000
#03114:00000013
#03119:00000013
#03112:0000000023000014
#03115:26260000
#0311a:0000000000000024
#03217:0014000000140000
#03215:1400001400000014
#0321a:0000000000000014
#03210:41
#03315:0014000000140000
#03317:1400001400000014
#03312:0000000000000014
#04912:0014000000000014
#04916:0000001400140014
#04910:41
#0561a:0014000000140000
#05616:0000001400000014
#05612:0000000000000014
#04716:0014
#04714:00000013
#04719:25000013
#04712:2500000000000014
#0471a:0000000000000024
#0571a:1400000000000014
#05712:0014000000140000
#05716:0000001400000014
#05812:1400000000000014
#0581a:0014000000140000
#05816:0000001400000014
#05912:0000001400000014
#05916:0014140000130000
#05917:0000000000000013
#05919:00000013
#05914:00000013
#0591b:0000000000130000
#06012:0000001400130000
#06014:00140013
#0601a:0024000000000014
#06017:0000000000130000
#06016:0000002400000013
#06019:00000013
#0601b:0013
#06018:00240000
#0611a:0000001400000000
#06118:00140000
#06112:0024000013000014
#06116:0000002400130000
#06117:0000000000000013
#06119:00000013
#06114:00240013
#0611b:0000000000130000
#06216:0000001400140014
#0621a:0014140000001400
#06212:0014
#0631a:14140000
#06316:0014001400140014
#06312:00001414
#06518:000000130000000000000013000000000000000000000000
#06515:000000000013000000130000000000000000000000000000
#0651a:24140000
#06516:0000000000140014
#06512:24
#06510:41
#06612:14140000
#06615:000000130000000000000013000000000000000000000000
#06618:000000000013000000130000000000000000000000000000
#06616:0000000000140014
#06715:0000131313000000
#0671b:1313130000000000
#06718:0000000013131300
#06712:0000000000001313
#06814:0000141414000000
#06818:0000000014141400
#0681a:1414140000000000
#06812:13000014
#06815:0000000000000014
#06918:000000130000000000000013000000000000000000000000
#06915:000000000013000000130000000000000000000000000000
#0691a:24140000
#06916:0000000000140014
#06912:24
#07012:14140000
#07015:000000130000000000000013000000000000000000000000
#07018:000000000013000000130000000000000000000000000000
#07016:0000000000140014
#07218:0000000000001212
#07216:000000000012
#0721a:24
#0711a:14000024
#07118:00142400
#07114:00241400
#07112:24000014
#07312:24
#0731a:24
#0641a:24
#06412:24
#00152:0014
#0015a:14
#00155:14
#00157:0014
#00052:0014
#0005a:14
#00653:0015
#00658:00140016
#00655:13
#0025a:44
#00255:34
#00257:0044
#00252:0034
#00352:36
#00358:46
#00452:36
#00558:13
#00752:36
#00758:46
#0085b:000000000000000000000000000000000000000000000023
#00856:000000000000000000000000000000000000000000000023
#0085a:14
#00952:000000000000000000000023000000000000000000000000
#00957:000000000000000000000023000000000000000000000000
#01057:000000000000000000000000000000000000000000000063
#01052:000000000000000000000000000000000000000000000063
#0115b:000000000000000000000053000000000000000000000000
#01156:000000000000000000000053000000000000000000000000
#0125a:14
#01257:000000000000000000000000000000000000000000000023
#01252:000000000000000000000000000000000000000000000024
#01356:000000000000000000000024000000000000000000000000
#0135b:000000000000000000000023000000000000000000000000
#01452:000000000000000000000000000000000000000000000063
#01456:000000000000000000000000000000000000000000000064
#0155a:0064000000000000
#01556:0063000000000000
#01757:000000000000000000000053000000000000000000000000
#01852:14
#01857:000000000000000000000000000000000000000000000053
#0205a:14
#02052:000000000000000000000000000000000000000000000063
#0215b:000000000000000000000053000000000000000000000000
#0225b:000000000000000000000000000000000000000000000053
#02252:14
#02458:1616
#02452:00160016
#02552:1616
#02558:00160016
#02758:1616
#02752:00160016
#02858:16
#02952:14
#03056:6454
#03052:000000000014000000000000000000000000000000000000
#0305a:000000000000000000000000000000000014000000000000
#03155:66560000
#03152:0000130013000064
#0315b:0013
#0315a:0000000000000014
#0345a:0000000064000014
#03452:0000000064000014
#03455:240000000000000000000000000000000063000000000000
#03458:000000000000000000000000000000000063000000000000
#03554:0000001400000000
#03558:0000001400000000
#0355a:0000000000000064
#0365a:0000001400000000
#03652:0000000000000054
#03752:0000001400000000
#03756:0000000000000063
#0375b:0000000000000063
#03857:0000000063000013
#03852:0000000063000013
#03856:0000000000230000
#0385b:0000000000230000
#03955:000000000000000000640000000000000000000000000063
#0395a:0000006400000000
#04057:0063000000000000
#04052:0063000000000000
#04056:0023
#0405b:0023
#04255:13
#04358:13
#04458:13
#04455:13
#04456:0013
#0445b:0013
#04557:0063
#04552:0063
#0465a:14
#04657:00140000
#04655:0014
#04652:00000014
#04759:15
#04752:1500000000000064
#0475a:0000000000000014
#0505a:0000000064000014
#05052:000000000000000000000000000000000064000000000000
#05056:000000000000000000000000000000000064000000140000
#0515b:0000000000000063
#05156:0000000000000013
#0525a:0000001400000000
#05252:0000000000000053
#05257:0000000000000013
#05352:0000001400000000
#0535b:0000000000000063
#05356:0000000000000013
#05559:0000000000000015
#05557:24
#05552:0064003400000065
#05555:00240000
#0555a:0000004400000000
#03255:2400000000000014
#0325a:0000000000000064
#03357:2400000000000014
#03352:0000000000000064
#04856:0000000000000014
#0485a:0000000000000064
#0545a:0000000000000064
#04952:0000000000000064
#04956:0000000000000014
#05656:0000000000000064
#05652:0000000000000014
#0575a:2400000000000014
#05756:0000000000000054
#05852:2400000000000014
#05856:0000000000000064
#05952:0000001400000054
#0595a:0000001400000000
#05956:0064640000000000
#05957:0000000000000043
#06052:0000001400000000
#0605a:0000000000000064
#06056:0000000000000033
#0615a:0000001400000000
#06152:0000000000000054
#06157:0000000000000043
#0635a:14140000
#06352:00001414
#0665a:14
#06752:14
#06755:0013
#0675b:00130000
#06758:00000013
#06854:0014
#06858:00000014
#0685a:00140000
#06852:13000064
#06855:0000000000000024
#06952:34
#0705a:14
#07152:14
#07154:00140000
#07158:0014
#0715a:00000014
#0165a:14
#01656:000000000000000000000000000000000000000000000063
#02652:00140000
#0265a:00000014
#06552:34
#004350:00001323
#004381:00000013
#005381:23
#005381:00001323
#005350:00000013
#006350:23
#0083b0:000000000000000000000000000000000000000000000013
#009370:0023000000000000
#008361:000000000000000000000000000000000000000000000013
#009321:0023000000000000
#009321:000000000000000000000013000000000000000000000000
#009361:0000000000230000
#009370:000000000000000000000013000000000000000000000000
#0093b0:0000000000230000
#010320:000000000000000000000000000000000000000000000013
#011360:0023000000000000
#010371:000000000000000000000000000000000000000000000013
#0113b1:0023000000000000
#0113b1:000000000000000000000013000000000000000000000000
#011371:0000000000230000
#011360:000000000000000000000013000000000000000000000000
#011320:0000000000230000
#012370:000000000000000000000000000000000000000000000013
#0133b0:0023000000000000
#012321:000000000000000000000000000000000000000000000014
#013361:0024000000000000
#013361:000000000000000000000014000000000000000000000000
#013321:0000000000240000
#0133b0:000000000000000000000013000000000000000000000000
#013370:0000000000230000
#014320:000000000000000000000000000000000000000000000013
#015360:0033000000000000
#015320:0000002300000000
#014361:000000000000000000000000000000000000000000000014
#0153a1:0034000000000000
#015361:0000002400000000
#016361:000000000000000000000000000000000000000000000013
#017321:0023000000000000
#017371:000000000000000000000013000000000000000000000000
#0173b1:0000000000230000
#018371:000000000000000000000000000000000000000000000013
#0193b1:0023000000000000
#020321:000000000000000000000000000000000000000000000013
#021361:0023000000000000
#0213b1:000000000000000000000013000000000000000000000000
#021361:0000000000240000
#0223b1:000000000000000000000000000000000000000000000013
#023371:0023000000000000
#023321:0000000014240000
#0233a1:0000000000001424
#0263a1:14342400
#026361:0000003400000000
#026320:00001434
#026360:0000000000000034
#027320:24
#028380:000000000000000000000013000023000000000000000000
#028351:000000000000000000000000000013000023000000000000
#029351:000000000000000000000013000000230000000000000000
#029380:0000000000142400
#029321:0000000000001424
#0293a0:0000000000000014
#0303a0:24
#030361:14
#030321:000000000024000000000000000000000000000000000000
#030361:0014
#0303a1:000000000000000000000000000000000024000000000000
#031351:16
#031321:00230000
#031350:00160000
#0313b0:0023
#031320:0000000000000014
#032350:54
#032320:0034240000000000
#0323a1:00142400
#032330:00001424
#0323a1:0000000000001434
#033371:54
#0333a1:0034240000000000
#033320:00142400
#033391:00001424
#033320:0000000000001434
#034350:54
#034320:0034240000000000
#0343a1:0000140034000024
#034381:000000000000000000000000000000000033000000000000
#034320:0000000014000024
#034350:000000000000000000000000000000000033000000000000
#0353a0:0000000000000014
#036360:0024000000000000
#036320:0000000000000014
#037360:0024000000000000
#037360:0000000000000013
#038320:0023000000000000
#0373b1:0000000000000013
#038371:0023000000000000
#038371:0000000013003323
#0383b1:0000000000530000
#038320:0000000013003323
#038360:0000000000530000
#0393a0:0000001400000000
#039370:0000000000240000
#039351:0000001400000000
#039321:0000000000240000
#039351:000000000000000000000000000000000000000000000013
#040321:0033000000000023
#040361:0053
#040370:0013000000000023
#0403b0:0053
#041380:00001323
#041351:00000013
#042351:23
#042351:00001323
#042380:00000013
#043380:23
#043350:00001323
#043381:00000013
#044381:23
#045371:0013
#0453b1:00000023
#045320:0013
#045360:00000023
#047320:0000000000000014
#048360:0034240000000000
#0483a1:00142400
#048320:00001424
#0483a1:0000000000001434
#049361:0034240000000000
#049320:00142400
#0493a1:00001424
#049320:0000000000001434
#050360:0034240000000000
#0503a1:0000140034000024
#050361:000000000000000000000000000000000034000000000000
#050320:000000000000000000000000140000000054000000000000
#050360:0000000000000024
#0513b0:0000000000000013
#052370:0023000000000000
#052320:0000000000000013
#053360:0023000000000000
#0533b0:0000000000000013
#054370:0023000000000000
#054321:0014000000000000
#054361:00240000
#0543a1:0000001400000000
#054361:0024
#054321:0000000000140000
#054361:00000024
#0543a1:0000000000000014
#055371:54
#0553a1:0024000000000000
#055320:0014002400000000
#055350:00540000
#055320:0000000000000015
#056360:0034240000000000
#0563a1:00142400
#056320:00001424
#056361:0000000000001434
#0573a1:54
#057361:0034240000000000
#057320:00142400
#0573a1:00001424
#057360:0000000000001434
#058320:54
#058360:0034240000000000
#0583a1:00142400
#058320:00001424
#058361:0000000000001434
#0593a1:0024000000000000
#059360:0014000000000000
#059320:00240000
#059361:00140000
#0593a1:0000002400000000
#059321:0000000000000014
#060361:0024000000000000
#0603a1:0000000000000014
#061361:0024000000000000
#061321:0000000000000014
#062361:0024000000000000
#062361:00140000
#062321:0000002400000000
#062361:0014
#0623a1:0000000000240000
#062361:00000014
#062321:0000000000000024
#0643a1:14
#064381:00000023
#064320:14
#064350:00000023
#065320:00001424
#0653a1:00000014
#0663a1:24
#0663a1:00001424
#066320:00000014
#067320:24
#068320:00000014
#068350:0000000000000054
#069320:24
#069320:00001424
#0693a1:00000014
#0703a1:24
#0703a1:00001424
#070320:00000014
#071320:24
#072320:1424
#0723a1:1424
