This file was generated by Ched 2.7.0.0.
#TITLE ""
#ARTIST ""
#DESIGNER ""
#DIFFICULTY 0
#PLAYLEVEL
#SONGID ""
#WAVE ""
#WAVEOFFSET 0
#JACKET ""
#REQUEST "ticks_per_beat 480"
#00002: 4
#BPM01: 140
#00008: 01
#TIL00: ""
#VOLUME: ""
#HISPEED 00
#MEASUREHS 00
#02018:0013000000130000
#0201b:0000001300000013
#02012:2424
#02014:00240024
#04716:0014
#04712:24
#0471a:24
#00015:14
#00017:0014
#0001a:24
#00012:0024
#00115:14
#00117:0014
#00112:0024
#0011a:24
#00212:14
#00219:0013
#0021a:24
#00214:0023
#00316:0014
#00312:24
#0031a:24
#00414:0014001400000000
#0041a:24141400
#00417:000000000000000000000000000000000014000000000000
#00410:41
#00512:14141400
#00518:0014001400000000
#00515:000000000000000000000000000000000014000000000000
#00716:0014
#00712:24
#0071a:24
#00815:00130000
#0081b:00001313
#00812:000000000000000000000000000000000000000000000013
#0081a:24
#0091b:000000000000000000000013000000000000000000000000
#00915:0033000000000000
#00918:0000000000330000
#0101b:000000000000000000000000000000000000000000000013
#01012:13001313
#01018:00130000
#01112:000000000000000000000013000000000000000000000000
#01118:0033000000000000
#01115:0000000000330000
#01212:00130000
#01218:00001313
#01215:000000000000000000000000000000000000000000000013
#0121a:24
#01318:000000000000000000000013000000000000000000000000
#01312:0033000000000000
#0131b:0000000000330000
#01412:13
#0141b:00130000
#01415:00001313
#01418:000000000000000000000000000000000000000000000013
#01618:0013001300130013
#01612:2424
#01614:00240024
#01610:41
#01715:0014000000000013
#01712:14
#01717:0000000000140000
#0171a:0014
#01716:0000001400000000
#01815:0013001300130013
#0181a:1424
#01818:00240024
#01912:0000130000130000
#01918:0000001300001300
#01915:0013
#0191b:0000000000000013
#0191a:14
#02112:1400000000000013
#02115:0014000000000000
#02117:0000000000140000
#0211a:0014
#02116:0000001400000000
#02215:0013000000130000
#02212:0000001300000013
#0221a:1424
#02218:00240024
#02312:0013
#02315:0000000000130000
#02318:00000013
#0231b:0000000000000013
#0231a:14
#02418:0013130000001300
#02415:0000001300130000
#0241a:0014
#02412:2400000000000013
#02410:41
#0251a:14
#02515:0013130000001300
#02518:0000001300130000
#02512:0014
#0251b:0000000000000013
#02612:14
#02615:0014000000000000
#0261a:0014
#02617:0000000000140000
#02718:14
#02713:00140014
#0271a:0014
#02712:24
#02719:00240024
#02714:0024
#02818:14130000
#02815:0000001300000000
#0281a:0014
#02816:0000000000140000
#02812:24000014
#02914:14
#02915:00130000
#02918:0000001300000000
#02912:0014
#02916:0000000000140000
#0291a:14000014
#03012:14
#0301a:0014
#03117:14
#03115:00140000
#03112:2424
#0311a:00240000
#03218:00130000
#03215:0000001300000013
#0321b:0013
#03210:41
#0331a:1414000000000000
#03315:00130000
#03318:0000001300000013
#03312:0013
#03412:1414000000000023
#03418:00130000
#03415:0000001300000000
#0341b:0000000013000023
#03518:0013001300000013
#03515:00130013
#03512:0000000000130000
#03615:0000140000000013
#0361a:0000001400000000
#03612:0000000000130000
#03618:00000013
#03717:0000140000000014
#03712:0000001400001400
#0371a:0000000000140000
#03814:0000140000140000
#03818:0000001400140000
#03812:0014
#0381a:0014
#03918:0013001300000013
#03915:000000000000130000000000000000000000130000000023
#04015:00000000000000000013000000000000
#04012:0013000000000000
#04118:0013000000000000
#04115:000000000000130000000000000000000014000000000000
#0411b:0000001300000000
#04112:0014
#0411f:11
#0421b:13
#04215:0013000000000000
#04218:00130000
#04212:0000001300000000
#0421a:0014
#04217:000000000000000000000000000000000014000000000000
#04312:1314
#04318:0013000000000000
#04315:000000000000130000000000000000000014000000000000
#0431b:0000001300000000
#04412:0000130000000013
#04415:0000001300000000
#0441b:0000000000000013
#04418:0013
#0441a:24
#04512:0013000000000000
#04515:00130000
#04518:0000001300001300
#0451b:0000000013000033
#04615:00130000
#04618:0013
#04612:00000013
#04815:0013001300000000
#04818:00130000
#0481a:2414
#04816:000000000000000000000000000000000014000000000000
#0481f:21
#04912:1314
#04918:0013001300000000
#04915:00130000
#04916:000000000000000000000000000000000014000000000000
#04910:41
#0501b:13
#05015:0013001300000000
#05018:00130000
#0501a:0014
#05016:000000000000000000000000000000000014000000000000
#05112:0024000000130013
#05118:00000013
#05116:00240000
#0511a:0000002400000000
#05314:00000014
#05312:0013001400000000
#05318:0000130000140000
#0541a:00140000
#05413:0000001400000000
#05412:0014000000000000
#05419:0014
#05414:0000000000140014
#05418:00000014
#05912:0000002400140000
#05916:00240014
#0591a:0024000000000000
#0601a:0000000000140000
#06016:0014000000001400
#06014:00140000
#06012:0000001400000000
#06116:0014000000001400
#06118:00140000
#0611a:0000001400000000
#06112:0000000000140000
#0521b:0013000000130013
#05215:00130013
#0521a:0000001400000000
#05512:1400000000000024
#05518:0014000000002400
#0551a:00140000
#05515:0000000000240000
#0561b:0013000000000000
#05618:00130000
#05615:0000001300000000
#05616:000000000000000000000000000000000014000000000000
#05612:0014
#05718:1300001300000000
#05712:0013000000000000
#05715:00130000
#05716:000000000000000000000000000000000014000000000000
#0571a:0014
#05815:1300001300000000
#0581b:0013000000000000
#05818:00130000
#05816:000000000000000000000000000000000014000000000000
#05812:0014
#06215:0014000000000000
#06214:0000140000140000
#06213:0000001400000000
#0621a:0014
#06212:0014
#06218:0000000000140000
#06315:0013000000000000
#06318:00130000
#06312:0000001300000000
#0631b:0000001300000000
#06515:00130000
#06518:0000001300000000
#06512:2413
#0651b:0000000000000013
#0651a:24
#06510:41
#06615:0013001300000000
#06618:00130000
#0661b:0013
#06612:0000000000000013
#06715:0013000000130000
#06712:0000001300000000
#0671a:2424
#06718:00240024
#06818:0013000000130000
#0681b:0000001300000000
#06812:2424
#06814:00240024
#06918:00130000
#06915:0000001300000000
#0691b:0013
#06912:0000000000000013
#07018:0013001300001300
#07015:00130013
#07012:0013
#07119:00001424
#07113:00002414
#07112:24140000
#0711a:00240000
#07218:14
#07212:00001313
#0721b:0000000000130013
#07214:24
#0061a:24
#00618:00240000
#00616:0024
#00614:00000024
#07315:26
#00352:14
#0035a:14
#0045a:0064
#00457:000000000000000000000000000000000064000000000000
#00552:0054
#00555:000000000000000000000000000000000054000000000000
#00852:000000000000000000000000000000000000000000000063
#0085a:14
#0095b:000000000000000000000053000000000000000000000000
#0105b:000000000000000000000000000000000000000000000053
#01152:000000000000000000000063000000000000000000000000
#0125a:14
#01255:000000000000000000000000000000000000000000000053
#01358:000000000000000000000063000000000000000000000000
#01458:000000000000000000000000000000000000000000000063
#0155b:0013000000000000
#01652:14
#01755:0024000000000000
#01752:64
#01757:0000000000240000
#0175a:0054
#02052:14
#02452:14
#0245a:0014
#0255a:14
#02552:0014
#02652:64340000
#02655:0024000000000000
#0265a:00005444
#02657:0000000000240000
#02852:14
#02858:14
#02954:14
#0295a:14
#03052:64
#03055:00140000
#0305a:0054
#03057:00000014
#0325a:14
#03252:14
#03258:000000000000000000000000000000000013000000000000
#0325b:0063
#03352:0053
#03355:000000000000000000000000000000000013000000000000
#0345b:0063
#03458:000000000000000000000000000000000013000000000000
#03558:0000001300000063
#0365a:0000001400000000
#03655:0000000000000053
#03752:0000001400000000
#03757:0000000000000064
#0385a:0000000054000014
#03852:0000000064000014
#03854:0000000000240000
#03858:0000000000240000
#03958:0000006300000000
#03955:000000000000000000000000000000000000000000000063
#04055:00000000000000000023000000000000
#04052:0063000000000000
#04152:0064
#04155:000000000000000000000000000000000064000000000000
#0425a:0054
#04257:000000000000000000000000000000000054000000000000
#04352:0064
#04355:000000000000000000000000000000000064000000000000
#0445a:14
#04458:0063
#04558:00000063
#0455b:0063
#0465b:13
#04655:00130000
#04658:0013
#04652:00000013
#0485a:1400000064000014
#04856:000000000000000000000000000000000064000000000000
#04952:0000000054000014
#04956:000000000000000000000000000000000054000000000000
#0505a:0000000064000014
#05056:000000000000000000000000000000000064000000000000
#06052:0000001400000000
#0605a:0000001400000000
#0615a:0000001400000000
#06152:0000001400000000
#05152:0000000000000063
#0525a:0000001400000000
#0525b:0000000000000053
#05352:0000001400000000
#05454:0000000000000064
#05552:2400000000000014
#05558:0064001400000000
#0555a:00240000
#05652:0000000064000014
#05656:000000000000000000000000000000000064000000000000
#05756:000000000000000000000000000000000054000000000000
#0575a:0000000054000014
#05856:000000000000000000000000000000000064000000000000
#05852:0000000064000014
#06252:0000000064000014
#0625a:0000000064000014
#06254:0000000000240000
#06258:0000000000240000
#06352:0000006300000000
#0635b:0000005300000000
#06452:13
#0645b:13
#06552:1463
#0655a:14
#0665b:0053
#06854:00000064
#06952:14
#0695b:0053
#07052:0063
#07058:00000063
#07055:00000053
#0715a:14140000
#07152:14140000
#07159:00001414
#07153:00001414
#07258:14
#07254:14
#07355:16
#0195a:64
#01957:0014000000000000
#02155:0024000000000000
#02152:64
#02157:0000000000240000
#0215a:0054
#0235a:64
#02357:0014000000000000
#0225a:14
#0185a:14
#0043a0:0000000014000024
#004370:000000000000000000000000000000000034000000000000
#005320:0000000014000024
#005350:000000000000000000000000000000000034000000000000
#008320:000000000000000000000000000000000000000000000013
#009350:0033230000000000
#0093b0:000000000000000000000013000000000000000000000000
#009380:0000000000332300
#0103b0:000000000000000000000000000000000000000000000013
#011380:0033230000000000
#011320:000000000000000000000013000000000000000000000000
#011350:0000000000332300
#012350:000000000000000000000000000000000000000000000013
#013320:0033230000000000
#013380:000000000000000000000013000000000000000000000000
#0133b0:0000000000332300
#014380:000000000000000000000000000000000000000000000013
#0153b0:0023000000000000
#017320:14240000
#017350:0034000000000000
#0173a0:00001424
#017370:0000000000340000
#0193a0:14
#019370:0024000000000000
#021320:14240000
#021350:0034000000000000
#0213a0:00001424
#021370:0000000000340000
#0233a0:14
#023370:0024000000000000
#026320:14240000
#026350:0054000000000000
#0263a0:00001424
#026370:0000000000540000
#030320:14
#030350:00240000
#0303a0:0014
#030370:00000024
#0313a0:0014
#0323a0:24
#031321:0014
#032321:24
#0323b1:0013
#032381:000000000000000000000000000000000023000000000000
#033321:0013
#033351:000000000000000000000000000000000023000000000000
#0343b1:0013
#034381:000000000000000000000000000000000023000000000000
#035381:0000000000000013
#0363b1:0023000000000000
#036351:0000000000000013
#037321:0023000000000000
#037371:0000000000000014
#0383a1:0024000000000000
#0383a1:0000000014003424
#038381:0000000000540000
#038320:0000000014003424
#038340:0000000000540000
#039380:0000001300000000
#0393b0:0000000000230000
#039350:000000000000000000000000000000000000000000000013
#040320:0033000000000000
#040350:00000000000000000053000000000000
#041320:23
#041320:0000000014000024
#041350:000000000000000000000000000000000034000000000000
#0423a0:0000000014000024
#042370:000000000000000000000000000000000034000000000000
#043320:0000000014000024
#043350:000000000000000000000000000000000034000000000000
#044380:0013
#0443b0:00000023
#0453b0:0000000013000033
#045380:00000033
#0463b0:23
#0483a0:0000000014000024
#048360:000000000000000000000000000000000034000000000000
#049320:0000000014000024
#049360:000000000000000000000000000000000034000000000000
#0503a0:0000000014000024
#050360:000000000000000000000000000000000034000000000000
#051320:0000000000000013
#052350:0023000000000000
#0523b0:0000000000000013
#053380:0023000000000000
#0533a0:0000000000000014
#0543a0:0024000000000000
#054340:0000000000000014
#055320:54
#055340:0024000000000000
#055381:0014002400000000
#0553a1:00540000
#056321:0000000014000024
#056361:000000000000000000000000000000000034000000000000
#0573a1:0000000014000024
#057361:000000000000000000000000000000000034000000000000
#058321:0000000014000024
#058361:000000000000000000000000000000000034000000000000
#0593a1:0000000000000014
#0603a1:0000002400000000
#060321:0000000000000014
#061321:0000002400000000
#0613a1:0000000000000014
#0623a1:0000000034003424
#062381:0000000000540000
#062320:0000000014003424
#062340:0000000000540000
#063320:0000001300003300
#063350:0000000000330033
#064320:23
#0633b1:0000001300003300
#063381:0000000000330033
#0643b1:23
#065321:0013
#065351:00000023
#0663b1:0013
#066381:00000023
#068341:00000014
#069321:24
#0693b1:0013
#069381:00000023
#070321:0013
#070351:00000033
#071321:24
#070380:00000013
#0713a0:24
