This file was generated by Ched 2.7.0.0.
#TITLE ""
#ARTIST ""
#DESIGNER ""
#DIFFICULTY 0
#PLAYLEVEL
#SONGID ""
#WAVE ""
#WAVEOFFSET 0
#JACKET ""
#REQUEST "ticks_per_beat 480"
#00002: 4
#BPM01: 128
#00008: 01
#TIL00: ""
#VOLUME: ""
#HISPEED 00
#MEASUREHS 00
#00818:00000000000013001300000000000013
#00815:00000000000000130000000000001300
#00812:2400000000130000
#0081b:00000013
#0081a:24
#0091a:00140000
#00918:00000000000000130000001300000013
#0091b:00000000000000000013000000000000
#00915:0000000000000013
#00912:24
#01012:13
#01015:00001300000000130000130000001300
#01018:00000000130013000000000000000013
#0101b:00001313
#01112:13000000000000000000001300000000
#0111b:00000000130000000000001300000000
#01118:00000000000013000013000000001300
#01115:00000000130000001300000000000013
#01218:13001300001300000000130000000000
#01212:00131300
#01215:00000000000013000000000013000013
#0121b:00000000000000130000000000001300
#01210:41
#01318:13000000000000000013000000001300
#0131b:00000000130000000000001300000000
#01312:00000000130000000000001300000000
#01315:00000000000000001300000000000013
#0141b:13001313
#01419:0013001300000000
#01417:00130000
#01414:0000000000130013
#01416:00000013
#01412:00131300
#01512:13000000000000000000000000000013
#0151b:1300130000000013
#01518:00000000000013000013000013000000
#01515:00000000000000001300001300000000
#01618:13000000130000000013000000001300
#01615:00001300001300000000130000000013
#01612:00001313
#0161b:0000001300001300
#0171b:13130013
#01712:00130000
#01715:0013
#01718:0013
#02518:00130000
#02515:0000001300001300
#0251b:0013
#02512:2413
#0251f:11
#0251a:24
#0261b:1313
#02618:00001300000013000000000013000013
#02615:0000130000130013
#02612:0013
#02712:1313
#02718:0000130013000013
#0271b:0000001300001300
#02715:0000000000131300
#02415:0000000013000013
#02418:0000001300001300
#02412:1300000000130000
#0241b:13130000
#02818:1300001313000000
#02812:13000013
#0281b:00130000
#02815:0013
#02918:1300001300001300
#02915:00130000
#02912:0013
#0291b:0013
#03012:1313
#03015:00001300000013000000000013000013
#03018:0000130000130013
#0301b:0013
#0311b:1313
#03115:00130000
#03112:0013
#03118:00000013
#03218:1300000013000013
#03215:13000000000000001300000000000013
#03212:00130000
#0321b:00000013
#03312:00000000130000000000001300000000
#03318:0000001300000013
#03315:00000000000000130013000000000013
#0331a:24242424
#0331f:21
#03412:0013000013000000
#03414:00130000
#03416:0000001300001300
#0341a:24242424
#03410:41
#03516:00000000130000000013001300000000
#03512:00000000000000000000000000130000
#03518:0000000000000013
#0351a:24242424
#03615:0013000000130000
#03618:0000001300000013
#0361a:24242424
#03612:24242424
#03718:00000000130000130013000000000013
#03715:0000001300000013
#0371b:00000000000000000000001300000000
#0371a:24
#03712:24242424
#0381b:0013000000130000
#03819:00131313
#03817:0000001300000013
#03812:24242424
#03919:13
#0391b:00130000
#03918:00000000000000001300001300001300
#03915:00000000000000000000130000000013
#03912:24242424
#0401b:13
#04116:00000000000014000013001300000000
#04115:0000000000000013
#04118:00000000000000000000000000000013
#04114:0013000000000000
#04119:0013000000000000
#0411a:24002424
#04112:24240000
#04216:0014001400140014
#04214:00130013
#04219:0013
#04212:2424
#0421a:00240024
#04319:13
#04316:00130000
#04314:0000001300000000
#04317:00000000000000000013001300000000
#04318:0000000000000013
#04315:00000000000000000000000000000013
#04312:24002424
#0431a:00240000
#04310:41
#04416:00001400000014000013001300000000
#04414:0000000000000013
#04419:0000000000130013
#0441a:24002424
#04412:00240000
#04516:0000001400000000
#04517:00000000000000000013001300000000
#04519:0013000000000000
#04514:0013000000000000
#04518:0000000000000013
#04515:00000000000000000000000000000013
#04512:24002424
#0451a:24240000
#04616:0014000000000014
#04618:00000000001300000000130000000000
#04615:00000000000013000013001300000000
#0461a:24002424
#04612:00240000
#04716:00001300000014000013001300000000
#04715:0000000000000013
#04718:00000000000000000000000000000013
#0471b:0013000000000000
#04712:24240000
#0471a:00002424
#04818:00130000000023000000000013000000
#04815:00001300130000000000130000131300
#0481b:0013
#04812:2413
#04918:00000013000000000013000000001300
#0491b:0000001300002300
#04915:00000000230000002300130000130000
#04912:24000000000013000000000000000013
#0491a:24
#05014:00001300005300530000130000530053
#05019:00530053000013000053005300001300
#0501b:23532353
#05012:00235323
#05010:41
#05017:0053000000530000
#05016:0000005300000053
#0511b:2300001300001300
#05112:5313
#05114:0000000000130000
#05119:0000000000000013
#05116:00242424
#05212:1324
#05218:00001300000000130000000000000000
#05215:00000013000013000000000000000000
#05216:2400000000140014
#0521a:00240024
#05318:00000013000000130013000000130000
#05312:2400001300002300
#05315:0000230023130013
#0531b:00000000001300000000001300000013
#0531a:24
#05419:00001300005300530000130000530053
#05414:00530053000013000053005300001300
#05412:23532353
#0541b:00235323
#05416:0053000000530000
#05417:0000005300000053
#05512:2300001300001300
#0551b:6313
#05519:0000000000130000
#05514:0000000000000013
#05516:00242424
#0561a:1212
#05616:12000012000000000000000000000000
#05614:0000001200001200
#05617:0000000000120012
#05618:00120000
#00118:12323232
#00115:00120012
#00116:0012
#00114:22000000000000000000000000520052
#00113:0000000000000052
#0021b:12
#00216:00120000
#00215:5212
#00214:00000012
#00218:00323232
#00316:12323232
#00319:00120012
#0031a:0012
#00413:12
#00418:12520000
#00419:00520052000000001200000000000000
#0041a:0052000000001200
#00416:00323232
#00518:12323232
#00515:0000120000000052
#00514:00000000000000001200000000520052
#00513:00000012
#00510:41
#0061b:12
#00614:00120000
#00615:0012
#00616:00000012
#00618:00323232
#00613:52
#00715:12
#00714:0000001200000000
#00716:0000000012000012
#00718:0000000000120000
#0071a:00000012
#01815:13130013
#01812:0013000000000033
#01818:0000001300130013
#0181b:0013
#0191b:1300001300000013
#01915:0000001300130000
#01912:0013
#01918:00000013
#01910:41
#02012:1313
#0201b:00130000
#02015:00000053000000000000130000001300
#02018:00000000000000530000000013000000
#02013:00530000000000000000000000000000
#02014:0053000000000000
#02016:00530000
#0201a:00000000005300000000000000000000
#02019:0000005300000000
#02017:0053
#02112:13130013
#0211b:13130000
#02118:0013
#02115:0013
#02218:13130013
#0221b:0013000000000033
#02215:0000001300130013
#02212:0013
#02312:13001313
#02318:0000001300000013
#0231b:00001313
#02315:0000000000130000
#0571a:2200525200000000
#0571b:00000000005200000000000000000000
#05714:0000000000005252
#05715:00000000000000000000000000520000
#05818:00520000
#05819:00000000005200000000000000000000
#0581a:0000005200005252
#0581b:00000000000000520000000000000000
#0581c:0000000052520000
#05918:52
#05914:0000525200000000
#05913:00000000005200000000000000000000
#0591a:0000000000005252
#05919:00000000000000000000000000520000
#06016:00520000
#06015:00000000005200000000000000000000
#06014:0000005200005252
#06013:00000000000000520000000000000000
#06012:0000000052520000
#06116:52
#0085a:14
#00852:14
#00952:14000000000000000000001300000000
#0095a:00140000
#00958:00000000000000000000001300000000
#0105b:00005353
#01055:0000000000530000
#01152:13
#01358:13
#01352:00000000000000000000005300000000
#01552:13
#0155b:13
#01555:00000000000000000000005300000000
#0175b:13000023
#01755:0053
#0255b:0053
#02555:00000053
#0255a:14
#02552:14
#02752:53
#02852:53000053
#02858:0053
#02955:13
#02958:13000063
#02952:0063
#0315b:63
#03152:0053
#03258:53
#03255:0063
#0335a:14
#03452:0053
#03456:00000053
#03552:13
#03556:00130000
#03752:14
#03959:13
#0405b:13
#0495a:14
#04952:14
#04955:0000000000130000
#05152:33
#0515b:43
#05352:14
#05552:33
#0555b:43
#0575a:12
#00158:52
#0025b:22
#00356:62
#00453:22
#00558:52
#0065b:22
#01855:00000053
#01952:13
#0195b:13
#02152:13000023
#0215b:13
#02158:0063
#02352:13
#0235b:13
#02258:00000063
#001380:12323232
#0023b0:32
#002380:00323232
#003380:22
#003361:12323232
#004331:32
#004361:00323232
#005361:22
#005380:12323232
#0063b0:32
#006380:00323232
#007380:22
#009320:00000000000000130000002300000000
#009350:00000000000000000033000000000000
#0103b0:0013
#010380:0000000000230000
#010351:0000000000130000
#010321:00000023
#0103b0:00000013
#010380:0000000000000023
#013320:00000000000000000000001300000000
#013350:0000000000000023
#015350:00000000000000000000001300000000
#015320:0000000000000023
#017350:0013
#017320:00000023
#0173b1:00000013
#018381:23
#018351:00000013
#018321:0000000000000033
#019321:23
#021381:0013
#0213b1:00000023
#021320:00000013
#022350:23
#022380:00000013
#0223b0:0000000000000033
#0233b0:23
#0253b0:0013
#025380:00000023
#025351:00000013
#026321:23
#027321:13
#027351:00230000
#028321:13
#028351:00230000
#028381:0013
#0283b1:00000023
#028320:00000013
#029350:23
#029320:0013
#029350:00000023
#029381:00000013
#0303b1:23
#0313b1:13
#031381:00230000
#031321:0013
#031351:00000023
#032381:13
#0323b1:00230000
#032351:0013
#032321:00000023
#034321:0013
#034361:00000033
#035321:23
#001950:00000012
#001930:0000000000000052
#002950:22
#004980:12220000
#0049a0:0052000000000000
#005930:00000012
#005950:0000000000000052
#006930:22
#020920:13
#020960:00230000
#0209b1:00130000
#020971:0023
#0509b1:13230000
#050971:0053000000000000
#050920:00132300
#050960:0000005300000000
#0509b1:00001323
#050971:0000000000530000
#050920:00000013
#050960:0000000000000053
#051920:23
#054920:13230000
#054960:0053000000000000
#0549b1:00132300
#054971:0000005300000000
#054920:00001323
#054960:0000000000530000
#0549b1:00000013
#054971:0000000000000053
#0559b1:23
#0579a1:0000122200000000
#0579b1:00000000005200000000000000000000
#057941:0000000000001222
#057951:00000000000000000000000000520000
#058981:000000000000000000000000000000000000000000000000000000000000000000000000000000000000000000000000000000000000000000000000000000000000000000000000000000000000000000000000000000000000000000000000000000000000000000000000000000000000000000000000000000000000000000000000000000000000000000000000000000000000000000000000000000000000000000000000000000000000000000000000000000000000000000000000000000000000000000000000000000000000000000000000000000000000000000000000000000000000000000000000000000000000000000000000000000000000000000000000000000000000000000000000000000000000000000000000000000000000000000000000000000000000000000000000000000000000000000000000000000000000000000000000000000000000000000000000000000000000000000000000000000000000000000000000000000000000000000000000000000000000000000000000000000000000000000000000000000000000000000000000000000000000000000000000000000000000000000000000000000000000000000000000000000000000000000000000000000000000000000000000120000000000000000000000000000000000000000000000000000000000000000000000000000000000000000000000000000000000000000000000000000000000000000000000000000000000000000000000000000000000000000000000000000000000000000000000000000000000000000000000000000000000000000000000000000000000000000000000000000000000000000000000000000000000000000000000000000000000000000000000000000000000000000000000000000000000000000000000000000000000000000000000000000000000000000000000000000000000000000000000000000000000000000000000000000000000000000000000000000000000000000000000000000000000000000000000000000000000000000000000000000000000000000000000000000000000000000000000000000000000000000000000000000000000000000000000000000000000000000000000000000000000000000000000000000000000000000000000000000000000000000000000000000000000000000000000000000000000000000000000000000000000000000000000000000000000000000000000000000000000000000000000000000000000000000000000000000000000000000000000000000000000000000000000000000000000000000000000000000000000000000000000000000000000000000000000000000000000000000000000000000000000000000000000000000000000000000000000000000000000000000000000000000000000000000000000000000000000000000000000000000000000000000000000000000000000000000000000000000000000000000000000000000000000000000000000000000000000000000000000000000000000000000000000000000000000000000000000000000000000000000000000000000000000000000000000000000000000000000000000000000000000000000000000000000000000000000000000000000000000000000000000000000000000000000000000000000000000000000000000000000000000000000000000000000000000000000000000000000000000000000000000000000000000000000000000000000000000000000000000000000000000000000000000000000000000000000000000000000000000000000000000000000000000000000000000000000000000000000000000000000000000000000000000000000000000000000000000000000000000000000000000000000000000000000000000000000000000000000000000000000000000000000000000000000000000000000000000000000000000000000000000000000000000000000000000000000000000000000000000000000000000000000000000000000000000000000000000000000000000000000000000000000000000000000000000000000000000000000000000000000000000000000000000000000000000000000000000000000000000000000000000000000000000000000000000000000000000000000000000000000000000000000000000000000000000000000000000000000000000000000000000000000000000000000000000000000000000000000000000000000000000000000000000000000000000000000000000000000000000000000000000000000000000000000000000000000000000000000000000000000000000000000000000000000000000000000000000000000000000000000000000000000000000000000000000000000000000000000000000000000000000000000000000000000000000000000000000000000000000000000000000000000000000000000000000000000000000000000000000000000000000000000000000000000000000000000000000000000000000000000000000000000000000000000000000000000000000000052525252
#0589c1:0000000052520000
#0589a1:0000000000005252
#059981:22
#059941:0000122200000000
#059931:00000000005200000000000000000000
#0599a1:0000000000001222
#059991:00000000000000000000000000520000
#060961:000000000000000000000000000000000000000000000000000000000000000000000000000000000000000000000000000000000000000000000000000000000000000000000000000000000000000000000000000000000000000000000000000000000000000000000000000000000000000000000000000000000000000000000000000000000000000000000000000000000000000000000000000000000000000000000000000000000000000000000000000000000000000000000000000000000000000000000000000000000000000000000000000000000000000000000000000000000000000000000000000000000000000000000000000000000000000000000000000000000000000000000000000000000000000000000000000000000000000000000000000000000000000000000000000000000000000000000000000000000000000000000000000000000000000000000000000000000000000000000000000000000000000000000000000000000000000000000000000000000000000000000000000000000000000000000000000000000000000000000000000000000000000000000000000000000000000000000000000000000000000000000000000000000000000000000000000000000000000000000000120000000000000000000000000000000000000000000000000000000000000000000000000000000000000000000000000000000000000000000000000000000000000000000000000000000000000000000000000000000000000000000000000000000000000000000000000000000000000000000000000000000000000000000000000000000000000000000000000000000000000000000000000000000000000000000000000000000000000000000000000000000000000000000000000000000000000000000000000000000000000000000000000000000000000000000000000000000000000000000000000000000000000000000000000000000000000000000000000000000000000000000000000000000000000000000000000000000000000000000000000000000000000000000000000000000000000000000000000000000000000000000000000000000000000000000000000000000000000000000000000000000000000000000000000000000000000000000000000000000000000000000000000000000000000000000000000000000000000000000000000000000000000000000000000000000000000000000000000000000000000000000000000000000000000000000000000000000000000000000000000000000000000000000000000000000000000000000000000000000000000000000000000000000000000000000000000000000000000000000000000000000000000000000000000000000000000000000000000000000000000000000000000000000000000000000000000000000000000000000000000000000000000000000000000000000000000000000000000000000000000000000000000000000000000000000000000000000000000000000000000000000000000000000000000000000000000000000000000000000000000000000000000000000000000000000000000000000000000000000000000000000000000000000000000000000000000000000000000000000000000000000000000000000000000000000000000000000000000000000000000000000000000000000000000000000000000000000000000000000000000000000000000000000000000000000000000000000000000000000000000000000000000000000000000000000000000000000000000000000000000000000000000000000000000000000000000000000000000000000000000000000000000000000000000000000000000000000000000000000000000000000000000000000000000000000000000000000000000000000000000000000000000000000000000000000000000000000000000000000000000000000000000000000000000000000000000000000000000000000000000000000000000000000000000000000000000000000000000000000000000000000000000000000000000000000000000000000000000000000000000000000000000000000000000000000000000000000000000000000000000000000000000000000000000000000000000000000000000000000000000000000000000000000000000000000000000000000000000000000000000000000000000000000000000000000000000000000000000000000000000000000000000000000000000000000000000000000000000000000000000000000000000000000000000000000000000000000000000000000000000000000000000000000000000000000000000000000000000000000000000000000000000000000000000000000000000000000000000000000000000000000000000000000000000000000000000000000000000000000000000000000000000000000000000000000000000000000000000000000000000000000000000000000000000000000000000000000000000000000000000000000000000000000000000000000000000000000000000052525252
#060921:0000000052520000
#060941:0000000000005252
#061961:22
