This file was generated by Ched 2.7.0.0.
#TITLE ""
#ARTIST ""
#DESIGNER ""
#DIFFICULTY 0
#PLAYLEVEL
#SONGID ""
#WAVE ""
#WAVEOFFSET 0
#JACKET ""
#REQUEST "ticks_per_beat 480"
#00002: 4
#BPM01: 128
#00008: 01
#TIL00: ""
#VOLUME: ""
#HISPEED 00
#MEASUREHS 00
#00815:0000000013000013
#00812:0000000000130000
#00818:0000001300001300
#0081b:00130000
#00814:24
#00912:00140000
#00918:0000001300000013
#00915:00000000000000130000000000000013
#0091a:24
#01018:1300001300001300
#01012:0013000000000000
#01015:00130000
#0101b:0013
#01118:0000001300000013
#01115:00000000130000001300000000000013
#01112:00000000000000000033000000000000
#0121b:13
#01215:0013000000000013
#01218:00131313
#01212:0000001300130000
#01210:41
#0131b:13000000130000000033000000000000
#01312:00130000
#01318:00000000000000001300000000000013
#01315:0000000000000013
#0151b:00130000
#01518:0000001300000013
#01515:00000000000000001300000000000013
#01512:00000000000000000033000000000000
#0161b:13000000000000001333000000000000
#01615:0013000000000013
#01618:00000000133300000000000000000013
#01712:1313
#01715:00000013
#01718:00130000
#02518:00130013
#02515:0000001300000000
#0251b:0013
#0251f:11
#02512:24
#02615:0013000000130013
#02618:00130013
#02612:0000001300000000
#0261b:0013
#0271b:13000013
#02715:0000001300000013
#02718:0013
#02712:0000000000130000
#01812:0013
#01815:0000130000130013
#01818:0013000000001300
#0181b:0000001300000000
#01912:13
#0191b:0000001300000013
#01915:00001313
#01918:0000000000130000
#01910:41
#02018:0000130000130000
#02015:0013000000001300
#02012:1300000013000013
#0201b:0000001300000000
#02818:1313
#02815:0000001300000000
#0281b:00000013
#03318:0000130000000013
#03315:23000000000000000000000000000013
#0331f:21
#03412:0013000000000000
#03418:00130013
#03415:0000001300000000
#0341b:1313
#03410:41
#03515:00000000130000000013000000000000
#03518:0013
#03616:0014001400140014
#0361a:00240024
#03612:2424
#04118:00000000130000000000000000000013
#04115:0000001300000013
#04112:24
#0411a:24
#04315:0000001300000013
#04318:00000000130000000000000000000013
#04312:24
#04310:41
#04418:0013001300000013
#04415:00130000
#04412:24000000000000000033003300000000
#04515:0000001300000013
#04518:00000000130000000000000000000013
#04512:24
#04618:00001300001300000000000000001300
#04615:0000131300000000
#04612:24
#0461b:00000000000000000033003300000000
#04815:00001300000000000000000000130000
#04818:00130000130000000000000013001300
#0481b:0013
#04812:2400002400130000
#04918:00000013000000000000000000000000
#0491b:0000001300000000
#04912:24000000000000000033333300333333
#04915:00230000
#05118:0000001300000013
#0511b:2300000000130000
#05112:00230023
#05115:0023
#0521b:0013230000130000
#05215:23000013000000000000000000001300
#05212:0000001323002300
#05218:00000000000000130000000000000000
#05315:00000013000000130000000000000000
#0531b:00000000000013000033333300333333
#05312:00000000001300000000000000000000
#0531a:24
#05318:00230000
#05615:00000013000000000000000013000000
#05612:0000001300000013
#05618:1300130000130000
#0561b:0013
#00118:13333333
#00112:0013
#00115:23
#0021b:13
#00212:1313
#00218:00333333
#00315:13333333
#0031b:0013
#00412:13
#0041b:1313
#00415:00333333
#00518:13333333
#00512:0013
#00510:41
#0061b:13
#00612:1313
#00618:00333333
#00715:13001313
#00718:0000001300130013
#0221b:0013
#02218:0000130000130013
#02215:0013000000001300
#02212:0000001300000000
#0231b:13
#02312:0000001300000013
#02318:00001313
#02315:0000000000130000
#02415:0000001300130000
#02418:00001313
#0241b:1300000000000013
#02412:00130000
#02915:00130013
#02918:0000001300000000
#02912:0013
#03018:0013000000130013
#03015:00130013
#0301b:0000001300000000
#03012:0013
#03112:0000001300000000
#03115:0000000013000013
#03118:0000000000130000
#0311b:00000013
#03218:1300001300000000
#03215:0013
#03212:00000013
#03715:0000130000000013
#03718:00000000000000000000000000000013
#03712:24
#0381b:0013000000000000
#03815:0000130000331300
#03818:0000001300000000
#03812:1300000013000033
#03918:0000130000130000
#03915:0013
#04218:0013001300000013
#04215:00130013
#0421b:0000000013130000
#04212:24
#04718:00000000130000000000000000000013
#04715:0000001300000013
#04712:24
#05018:0013000000000013
#05012:0000001300130000
#0501b:2323
#05015:00230023
#05010:41
#05415:0013000000000013
#0541b:0000001300130000
#05412:2323
#05418:00230023
#05515:0000001300000013
#05512:2300000000130000
#0551b:00230023
#05518:0023
#0211b:1313
#02118:00000013
#02115:00130000
#01415:1300001300001300
#0141b:0013000000000000
#01418:00130000
#01412:0013
#0571b:23
#05718:0000535300000000
#0571a:00000000005300000000000000000000
#05713:0000000000005353
#05715:00000000000000000000000000530000
#05812:00530000
#05813:00000000005300000000000000000000
#05814:0000005300005353
#05815:00000000000000530000000000000000
#05816:0000000053530000
#05914:53
#05915:0000535300000000
#05913:00000000005300000000000000000000
#0591a:0000000000005353
#05918:00000000000000000000000000530000
#0601b:00530000
#0601a:00000000005300000000000000000000
#06019:0000005300005353
#06018:00000000000000530000000000000000
#06017:0000000053530000
#06119:53
#00854:14
#0095a:14
#00952:00140000
#00955:00000000000000530000000000000000
#0105b:0053
#01058:00000053
#0135b:13
#01358:0063
#01752:1353
#01755:00000053
#0255b:0053
#02552:14
#02558:00000053
#01952:13
#0275b:63
#02858:6363
#0285b:00000063
#0345b:0053
#03458:00000053
#0355b:13
#03555:00130000
#03752:14
#03758:00000000000000000000001300000000
#04952:14
#0575b:13
#00158:53
#0025b:23
#00355:63
#00452:23
#00558:53
#0065b:23
#0115b:13
#01155:0053
#01555:0053
#01552:13
#01658:00530000
#0165b:0023
#0235b:13
#02958:13
#02952:0063
#02955:00000063
#03355:13000000000000000000001300000000
#03258:53
#03255:0053
#03252:00000053
#03852:0063
#03855:00000063
#03958:00130000
#03952:13
#04052:13
#0515b:13
#05552:13
#0535a:14
#0215b:1363
#02158:00000063
#01452:0063
#01455:00000063
#03058:0000000000000013
#001380:13333333
#0023b0:33
#002380:00333333
#003380:23
#003351:13333333
#004321:33
#004351:00333333
#005351:23
#005380:13333333
#0063b0:33
#006380:00333333
#007380:23
#009350:00000000000000130000000000000000
#009320:00000000000000000033002300000000
#0103b0:0000000013000033
#010380:0000000000333300
#0113b0:23
#011350:0013
#011320:00000000000000000033002300000000
#013380:0013
#0133b0:00000000000000000033002300000000
#014320:0000000013000033
#014350:0000000000333300
#015320:23
#015350:0013
#015320:00000000000000000033002300000000
#016380:00000000133300000000000023000000
#0163b0:00000000000000003333000000000000
#017320:0013
#017350:00000033
#018320:23
#0213b0:0013
#021380:00000033
#0223b0:23
#0253b0:0013
#025380:00000033
#0263b0:23
#0273b0:13
#027380:00230000
#028380:13
#0283b0:00230000
#028380:0013
#0283b0:00000033
#029380:23
#029320:0013
#029350:00000033
#030320:23
#032380:13
#0323b0:00230000
#032350:0013
#032320:00000033
#033350:23
#033320:0000001300000000
#033330:00000000000000330000000000000000
#033340:0033
#033350:00000000000000000033002300000000
#0343b0:0013
#034380:00000033
#0353b0:23
#035380:00000000000000000000001300000000
#0353b0:00000000000000000000000000332300
#0373b0:0000001300000000
#0373a0:00000000000000330000000000000000
#037390:0033
#037380:00000000000000000033002300000000
#038320:0000000013000033
#038350:0000000000333300
#039320:23
#039350:00000000000000000000001300000000
#039320:00000000000000000000000000333300
#040320:23
#041380:0013
#0413b0:00000000000000000033002300000000
#0433b0:0013
#043380:00000000000000000033002300000000
#044320:00000000000000001333003323000000
#044350:0000000000330000
#045380:0013
#0453b0:00000000000000000033002300000000
#0463b0:00000000000000001333003323000000
#046380:0000000000330000
#0473b0:0013
#047380:00000000000000000033002300000000
#049320:00000000000000001333333300333333
#049360:00000033
#050320:23
#0533b0:00000000000000001333333300333333
#053370:00000033
#0543b0:23
#057980:0000132300000000
#0579a0:00000000005300000000000000000000
#057930:0000000000001323
#057950:00000000000000000000000000530000
#058920:00130000
#058960:0000000053530000
#058940:00000053
#059940:23
#059950:0000132300000000
#059930:00000000005300000000000000000000
#0599a0:0000000000001323
#059980:00000000000000000000000000530000
#0609b0:00130000
#060970:0000000053530000
#060990:00000053
#061990:23
