This file was generated by Ched 2.7.0.0.
#TITLE ""
#ARTIST ""
#DESIGNER ""
#DIFFICULTY 0
#PLAYLEVEL
#SONGID ""
#WAVE ""
#WAVEOFFSET 0
#JACKET ""
#REQUEST "ticks_per_beat 480"
#00002: 4
#BPM01: 190
#00008: 01
#TIL00: ""
#VOLUME: ""
#HISPEED 00
#MEASUREHS 00
#00514:14
#00714:14
#00818:14
#00810:41
#00912:14
#01018:14
#01112:14
#0061a:14
#0121a:14
#0131a:14
#01414:14
#01514:14
#01618:14
#01718:14
#01812:14
#01912:14
#02912:14
#03018:14
#03114:14
#0321a:14
#03210:41
#03312:14
#03418:14
#03514:14
#0361a:14
#03718:14
#03812:14
#03914:14
#04018:14
#0411a:14
#04214:14
#04210:41
#04312:14
#0431f:11
#05412:16
#05418:0016
#05512:16
#05518:0016
#05818:16
#05812:0016
#05918:16
#05912:0016
#06212:1616
#06318:1616
#06618:1616
#06610:41
#06712:1616
#0041a:24
#0281a:24
#05218:26
#05212:0026
#0521f:21
#05210:0041
#05318:26
#05612:26
#05618:0026
#05712:26
#06018:26
#06012:0026
#06118:26
#06412:26
#06418:0026
#06512:26
#07518:0026
#07512:00000026
#02010:41
#000380:14
#001380:24
#002340:14
#003340:24
#0203a0:14
#0213a0:24
#022340:14
#023340:24
#024380:14
#025380:24
#026320:14
#027320:24
#0443a0:14
#045380:24
#046320:14
#047340:24
#048380:14
#0493a0:24
#050340:14
#051320:24
#053380:1626
#057320:1626
#061380:1626
#065320:1626
#0683a0:14
#069380:24
#070340:14
#071320:24
#072380:14
#0733a0:24
#074320:14
#075340:24
