This file was generated by Ched 2.7.0.0.
#TITLE ""
#ARTIST ""
#DESIGNER ""
#DIFFICULTY 0
#PLAYLEVEL
#SONGID ""
#WAVE ""
#WAVEOFFSET 0
#JACKET ""
#REQUEST "ticks_per_beat 480"
#00002: 4
#BPM01: 190
#00008: 01
#TIL00: ""
#VOLUME: ""
#HISPEED 00
#MEASUREHS 00
#0431f:11
#04312:13
#04318:13
#04314:0033000000000000
#04315:00330000
#04319:0033000000000000
#0431a:00330000
#0431b:0000003300000000
#04316:0000003300000000
#04615:00131300
#04618:0000001300001300
#04718:0013000013000000
#04715:0013
#04512:0013000013000000
#0451b:0013
#04015:00000013
#0401a:00000013
#04013:00130000
#04018:00130000
#04019:0013
#04014:0013
#04017:13
#04012:13
#03812:0014
#03819:0014001400140014
#03818:00140014
#0381a:1414
#03712:00130000
#03714:14
#0371b:00130000
#03718:14
#03719:0000000000000014
#03915:00130000
#03912:14
#03918:00130000
#0391a:14
#02416:0014
#02412:14
#0241a:14
#02418:00000014
#02414:00140000
#02618:0000001300000013
#0261b:0000000000130000
#0261a:14
#02612:24000013
#02615:0013
#0171b:2313
#01718:00130000
#06617:0000000000341400
#06614:0000001400000000
#06618:00140000
#0661b:13
#06612:0014000000000000
#0661a:0000000014000034
#06610:41
#07415:1300000000000013
#07418:0000130000000013
#0741b:0013
#06912:0000000000140000
#0691a:00000014
#06918:0014
#0711a:0000000000140000
#07112:00000014
#07114:0014
#07015:1300000000000013
#07018:00131300
#0701b:0000000000000013
#06818:2600000000000013
#06815:00131300
#06812:0000000000000013
#0721b:0000000000000013
#07215:00131300
#07212:0000000000000013
#07218:24
#0731a:00000014
#07312:0000000000140000
#07318:0014
#06712:00140025
#06719:0025
#06417:0015
#06418:00150000
#06419:15
#06412:0025
#06413:00250000
#06414:25
#06312:00143400000000000000000000000000
#06318:00240000
#06218:0000001400001400
#06214:0000140000000024
#06212:1314
#0621a:0014000000000000
#0581a:00000014
#05812:0014001400000000
#05817:00141400
#0581b:13
#05819:0000000000000034
#06014:0015
#06013:00150000
#06012:15
#06019:0025
#06018:00250000
#06017:25
#05612:0000000025000015
#05617:0000000000000015
#05618:00150000
#05619:15
#05613:00250000
#05614:25
#05219:0000000025000015
#05214:0000000000000015
#05213:00150000
#05212:15
#0521f:21
#05218:00250000
#05217:25
#05210:0041
#0501b:0013
#05018:0000130000000013
#05015:0000001300001300
#04918:0000001300000000
#04915:00131300
#04912:00000033
#04818:0013
#04815:00130000
#0481a:0000000000330000
#04415:0000001300001300
#04418:00131300
#04412:24
#04212:1313
#04218:1313
#04210:41
#0411b:13
#04116:13
#04117:0022
#03618:0014
#03018:13
#03015:00131300
#03012:0000000000000013
#02914:00000014
#0291a:0000000000140000
#02912:0014
#02818:00131300
#0281b:0000000000000013
#03418:13
#03415:0000130000000013
#03412:0013
#03118:00000014
#03112:0000000000140000
#0311a:0014
#03314:00000014
#0331a:0000000000140000
#03312:0014
#03218:0000130000000013
#0321b:0013
#03214:24
#03210:41
#02315:0033130000000000
#02212:0000000000000013
#02218:00130013
#02215:0000001300130000
#0221b:0013
#02118:0033133300000000
#02112:0000000000000024
#02015:00130013
#0201b:0000000000000013
#02018:0000001300130000
#02012:0013
#02010:41
#01518:00003313330000000000000000000000
#01519:0000003300000000
#0141b:0000000000000013
#01418:00131300
#01415:0013001300001300
#01218:0013000000001300
#01215:0013
#01212:0000000000000013
#0111b:0000000000000013
#01114:00002424
#01118:0000000000240000
#01315:00003313330000000000000000000000
#01312:0000000000000023
#0131b:0000000000000023
#01314:0000003300000000
#01012:13
#01015:0000001300000000
#01018:00131300
#0101b:0000000000000013
#00918:00001414
#00914:0000000000140000
#00818:0000001300000000
#00815:00131300
#00812:0000000000000013
#0081a:24
#00810:41
#00612:13
#00615:0000001300000000
#00618:0000130000000013
#0061b:0013
#00714:00001414
#00718:0000000000140000
#00518:00001414
#00514:0000000000140000
#00216:1252520052525200
#05918:0014
#05914:00140000
#05512:00141400
#05517:0014001400000000
#0541a:0014001400000000
#05415:00141400
#05412:13
#00418:0000001300000000
#00415:0000130000000013
#00412:0013
#01815:13
#01812:0013
#01818:0000001300000013
#01612:2313
#01615:00130000
#01915:13
#01912:0013
#01918:0000001300000000
#0191a:0000000000000024
#00018:1252520052525200
#02514:00000024
#02518:00240000
#02516:0024
#0251a:24
#02715:23
#06512:0025
#06517:0000002500000000
#06514:00250000
#06519:0025000000000000
#06119:0025
#06114:0000002500000000
#06117:00250000
#06112:0025000000000000
#07512:00000025
#07519:0000000000250000
#07514:0025
#0031a:00000024
#00316:5252525252520000
#05112:25250000
#05119:0025000000000000
#03518:00000024
#03512:0000000000240000
#0351a:0024
#00118:5252525252525200
#03952:5414
#0395a:6414
#03955:00630000
#03958:00530000
#03758:6414
#03754:5414
#03752:00630000
#0375b:00530000
#03759:0000000000000064
#07552:00130015
#0755b:00130000
#07152:00130000
#07158:00130000
#0695b:00130000
#06955:00130000
#07358:00130000
#07355:00130000
#0675a:14
#06752:00140015
#06759:0015
#0635a:0014
#06352:00240000000000001400000000000000
#05752:0015
#05757:0015
#05958:1414
#05954:00140000
#05359:0015
#05354:0015
#05052:13
#0505b:0013
#0495b:13
#04955:0053
#04555:0000000000000013
#04558:0000000000000013
#04552:0063
#0455b:0053
#0485b:13
#04852:13
#04858:0063
#04356:00000013
#0435b:00000013
#04352:53
#04358:53
#04255:00130013
#0425b:00130013
#04252:5353
#04258:5353
#03158:00130000
#03155:00130000
#02955:00130000
#02958:00130000
#03558:00130000
#03552:00130000
#03355:00130000
#0335b:00130000
#02854:14
#0285b:0000000000000053
#02858:0053
#02352:0013
#02355:00630000
#0215b:0013
#02158:00530000
#0155b:0013
#01558:00000023000000000000000000000000
#01158:00130000
#0115b:0000000000000053
#00955:00130000
#0075b:00130000
#0045a:14
#00455:0000000000000053
#00452:0053
#05155:0015
#05152:00650000
#00552:00130000
#01352:0013
#01355:00000023000000000000000000000000
#05452:0000000000000014
#05455:0064
#0175b:6363
#01758:00630000
#07258:14
#0725b:0000000000000053
#07252:0000000000000063
#07255:0063
#06858:1600000000000053
#06852:0000000000000063
#06855:0063
#06452:0055
#06457:0055
#06552:0015
#06059:0065
#06054:0065
#06159:0015
#04452:14
#03254:14
#03258:0000000000000063
#0325b:0063
#0085a:14
#00852:0000000000000063
#00855:0063
#06254:0000000000000054
#01652:5353
#01655:00530000
#06657:00000054
#0665a:0054
#07455:0000000000000053
#07458:0000000000000063
#0745b:0063
#07055:0000000000000063
#0705b:0000000000000053
#07058:0053
#0585a:00000064
#05857:0054
#05652:0000000000000065
#05657:0000000000000065
#05259:0000000000000055
#05254:0000000000000055
#04758:0063
#04755:0053
#0415b:53
#04156:53
#03859:0064006400640064
#03858:00240024
#0385a:2424
#03052:0000000000000063
#03055:0063
#03455:0000000000000053
#03452:0053
#02252:0000000000000063
#0145b:0000000000000053
#01258:0053000000000000
#01252:0000000000000063
#0105b:0000000000000053
#01058:0053
#00658:0000000000000063
#0065b:0063
#05552:0064
#0205b:0000000000000053
#01855:63
#01852:0053
#01955:63
#01952:0053
#0033a0:00000014
#0043a0:24
#004320:0013
#004350:0000000000003333
#005320:0033230000000000
#0063b0:0013
#006380:0000000000003333
#0073b0:0033230000000000
#008350:0013
#008320:0000000000003333
#009350:0033230000000000
#010380:0013
#0103b0:0000000000003333
#011380:0033230000000000
#0113b0:0000000000000013
#012380:0033000000000000
#0123b0:0000002300000000
#012320:0000000000000013
#013350:00003353330000000000000000000000
#013340:0000003300000000
#013320:0023
#0143b0:0000000000000013
#015380:00003353330000000000000000000000
#015390:0000003300000000
#0153b0:0023
#016320:1333
#016350:00330023
#0173b0:1333
#017380:00330023
#018350:13
#018320:00230000
#018320:0013
#018350:00000023
#019350:13
#019320:00230000
#019320:0013
#019350:00000023
#0193a0:0000000000000014
#0203a0:0024000000000000
#0203b0:0000000000000013
#021380:0033333300000000
#0213b0:0023
#021320:0000000000000014
#022320:0024000000000000
#022320:0000000000000013
#023350:0033330000000000
#023320:0023
#027350:13
#027320:00340034
#027340:0034
#028340:24
#028350:0000001300000000
#029350:00230000
#028381:0013
#0283b1:0000000000003333
#029381:0033230000000000
#030381:0000001300000000
#031381:00230000
#030350:0013
#030320:0000000000003333
#031350:0033230000000000
#032350:0000001300000000
#033350:00230000
#0323b1:0013
#032381:0000000000003333
#0333b1:0033230000000000
#034381:0000001300000000
#035381:00230000
#034320:0013
#034350:0000000000003333
#035320:0033230000000000
#035340:0000000000000000000000000000000000000000000000000000000014545400
#035330:00000000000000000000000000000000000000000000000000000000000000000000000000000000000000000000000000000000000000000054005400005400
#036340:540000540000540000540000540000540000540000540000540000540000540000005400000054000000540000005400
#036330:000000540000000000540000000000540000000000540000000000540000000000540000000000540000000000540000000000540000000000540000000000005400000000000000540000000000000054000000000000005400000000000000
#037340:3424
#037320:00330000
#037381:1424
#0373b1:00330000
#037391:0000000000000014
#0383a1:5454
#038391:0054005400540034
#038381:00540054
#0393a1:3424
#039381:00330000
#039320:1424
#039350:00330000
#0413b0:13
#041370:00230000
#041361:13
#041321:00230000
#042321:13
#042351:00230000
#042380:13
#0423b0:00230000
#042320:0013
#042350:00000023
#042381:0013
#0423b1:00000023
#043321:13
#043341:0033000000000000
#043351:00330000
#043361:0000003333002300
#043380:13
#043390:0033000000000000
#0433a0:00330000
#0433b0:0000003333002300
#0443b0:0000000000000013
#0453b0:0033
#045380:0000000000005323
#045321:00133300
#045351:0000000000005323
#046351:0000000000000013
#047351:0033
#047321:00000053
#048321:23
#047380:00133300
#0473b0:00000053
#0483b0:23
#048380:0013
#0483a0:0000000000330000
#0483b0:0000000000000033
#0493b0:23
#049350:0013
#049320:0000000000003353
#050320:23
#051320:00150000
#051350:0025
#052390:00000000000000001500003500003500
#053370:0035003500000000
#053390:00352500
#052341:00000000000000001500003500003500
#053321:0035003500000000
#053341:00352500
#054351:0014
#054321:0000000000003424
#055321:0014
#055351:00000024
#056321:00000000000000001500003500003500
#057341:0035003500000000
#057321:00352500
#056370:00000000000000001500003500003500
#057390:0035003500000000
#057370:00352500
#058370:0014
#0583a0:00000034
#058390:0000000000000034
#059380:24
#060390:0015
#060370:00000000000000000000003500002500
#060341:0015
#060321:00000000000000000000003500002500
#062341:0000000000000014
#063321:00543400000000002400000000000000
#063341:00340000
#063380:00140000
#0633a0:0024
#064320:0015
#064340:00000000000000000000003500002500
#064371:0015
#064391:00000000000000000000003500002500
#0663a1:0000000014000034
#066371:0000000000343400
#0673a1:24
#068381:0000001300000033
#0693b1:0033230000000000
#068350:0013
#068320:0000000000003333
#069350:0033230000000000
#070350:0000001300000033
#071320:0033230000000000
#070381:0013
#0703b1:0000000000003333
#071381:0033230000000000
#0723b1:0000001300000033
#073381:0033230000000000
#072350:0013
#072320:0000000000003333
#073350:0033230000000000
#074350:0000001300000033
#075320:0033230000000000
#0743b1:0013
#074381:0000000000003333
#0753b1:0033230000000000
#000980:12
#001980:00000022
#002960:12
#003960:0000000000220000
