This file was generated by Ched 2.7.0.0.
#TITLE ""
#ARTIST ""
#DESIGNER ""
#DIFFICULTY 0
#PLAYLEVEL
#SONGID ""
#WAVE ""
#WAVEOFFSET 0
#JACKET ""
#REQUEST "ticks_per_beat 480"
#00002: 4
#BPM01: 190
#00008: 01
#TIL00: ""
#VOLUME: ""
#HISPEED 00
#MEASUREHS 00
#00414:0014
#00418:26
#00518:14
#00512:0014
#0061a:14
#00614:0014
#00718:14
#00818:0014
#00810:41
#00914:14
#0091a:0014
#01012:14
#01018:0014
#01114:14
#0111a:0024
#01212:0014
#01318:1414
#01412:14
#0141a:0014
#01514:1414
#02014:0014
#02018:24
#02010:41
#0211a:1414
#02214:14
#02218:0014
#02312:1414
#02814:0014
#02818:26
#02918:14
#02912:0014
#0301a:14
#03014:0014
#03118:14000014
#03112:0014
#03218:0014
#03212:14
#03210:41
#03314:14
#0331a:0014
#03412:14
#03418:0014
#03514:14000024
#0351a:0024
#03612:0014
#0361a:24
#03718:1414
#03714:00140000
#0381a:0014
#03812:24
#03914:1414
#03918:00140000
#0411a:14
#04119:00340000
#04312:14
#0431f:11
#04313:00340000
#04212:14
#04214:0014
#04210:41
#0401a:14
#04018:0014
#04418:0014
#04414:00140000
#04412:00000014
#0441a:24
#04518:14
#04514:00140000
#0451a:0014
#04618:00140000
#04614:0014
#0461a:00000014
#04612:24
#04714:14
#04718:00140000
#04712:0014
#04918:14
#04919:00340000
#05114:14
#05113:00340000
#05014:14
#05012:0014
#05013:00340034
#04818:14
#0481a:0014
#04819:00340034
#0541a:14
#05412:00140000
#05418:0014
#05414:00000014
#0551a:14
#05512:00140000
#05518:0014
#05812:14
#0581a:00140000
#05814:0014
#05818:00000014
#05912:14
#0591a:00140000
#05914:0014
#0621a:14
#06216:00140014
#06212:0014
#0631a:1414
#06312:00140000
#06612:14
#06616:00140014
#0661a:0014
#06610:41
#06712:1414
#0671a:00140014
#06818:0014
#06812:24
#06914:14
#06912:00001414
#06918:00140000
#0701a:14
#07014:0014
#07118:14
#0711a:00001414
#07114:00140000
#07218:0014
#07214:24
#07312:14
#07314:00001414
#0731a:00140000
#07418:14
#07412:0014
#07518:14140026
#07512:0026
#05218:2626
#05212:00260000
#0521f:21
#05210:0041
#05312:2626
#05318:00260000
#05612:2626
#05618:00260000
#05718:2626
#05712:00260000
#06018:26
#06015:00260000
#06012:0026
#06118:26
#06115:00260000
#06112:0026
#06412:26
#06415:00260000
#06418:0026
#06512:26
#06515:00260000
#06518:0026
#00458:16
#00852:14
#0125a:14
#01758:0014
#01954:0014
#0255a:0014
#02752:0014
#02858:16
#03252:14
#0365a:14
#0415a:54
#04158:0014
#04352:64
#04354:0014
#04252:64
#04254:0064
#0405a:54
#04058:0054
#04958:64
#0495a:0014
#05154:54
#05152:0014
#05054:54
#05052:0054
#04858:64
#0485a:0064
#0455a:0014
#04752:0014
#05258:0016
#05352:0016
#05558:0014
#05954:0014
#05652:0016
#05758:0016
#06052:0016
#06152:0016
#0635a:0014
#06752:0014
#0675a:00000014
#06458:0016
#06558:0016
#06852:14
#07558:00000016
#07254:14
#0705a:14
#07458:14
#000380:1434
#001380:3424
#002340:1434
#003340:3424
#007320:00001434
#008320:24
#0113a0:00001434
#0123a0:24
#0163a0:14
#016380:0034
#0173a0:34
#017380:0024
#018320:14
#018340:0034
#019320:34
#019340:0024
#024380:14
#0243a0:0034
#025380:34
#0253a0:0024
#026340:14
#026320:0034
#027340:34
#027320:0024
#0403a0:14
#040380:0034
#0413a0:34
#041390:00340000
#041380:0024
#042320:14
#042340:0034
#043320:34
#043330:00340000
#043340:0024
#048380:14
#048390:00340034
#0483a0:0034
#049380:34
#049390:00340000
#0493a0:0024
#050340:14
#050330:00340034
#050320:0034
#051340:34
#051330:00340000
#051320:0024
