This file was generated by Ched 2.6.4.0.
#TITLE ""
#ARTIST ""
#DESIGNER ""
#DIFFICULTY 0
#PLAYLEVEL
#SONGID ""
#WAVE ""
#WAVEOFFSET 0
#JACKET ""
#REQUEST "ticks_per_beat 480"
#00002: 4
#BPM01: 130
#00008: 01
#TIL00: ""
#HISPEED 00
#MEASUREHS 00
#00018:16
#00010:41
#00212:16
#00418:16
#00612:16
#01814:14
#0191a:14
#02014:14
#02118:14
#02212:14
#02318:14
#02412:14
#02714:14
#0271f:11
#02818:14
#03118:14
#03214:14
#03512:0016
#03518:26
#0351f:21
#03618:16
#03612:0016
#03912:0016
#03918:16
#04018:16
#04012:0016
#0431a:14
#04314:0014
#04418:14
#04412:0014
#0451a:14
#04514:0014
#04712:14
#04718:0014
#04710:41
#04814:14
#0481a:0014
#04912:14
#04918:0014
#0511a:14
#05218:14
#05512:14
#05614:14
#05718:14
#0581a:14
#05912:26
#0171a:24
#01710:41
#0081a:24
#00910:41
#02510:41
#03710:41
#009380:14
#010380:24
#011340:14
#012340:24
#0133a0:14
#0143a0:24
#015320:14
#016320:24
#0253a0:14
#0263a0:24
#029340:14
#030320:24
#033380:14
#0343a0:24
#037380:1626
#038320:1626
#041380:1626
#042320:1626
#046380:1424
#050340:1424
#053340:14
#054320:24
