This file was generated by Ched 2.7.0.0.
#TITLE ""
#ARTIST ""
#DESIGNER ""
#DIFFICULTY 0
#PLAYLEVEL
#SONGID ""
#WAVE ""
#WAVEOFFSET 0
#JACKET ""
#REQUEST "ticks_per_beat 480"
#00002: 4
#BPM01: 180
#00008: 01
#TIL00: ""
#VOLUME: ""
#HISPEED 00
#MEASUREHS 00
#00118:0000000000130000
#00115:00000013
#0021b:0000000013000013
#00215:1300000000130000
#00218:24000013
#00214:0000000000000014
#00313:0013
#00312:00130000
#00314:00000013
#00412:2500000014000014
#00418:0000000000140000
#00415:00000014
#00417:14
#00419:0000000000000015
#0051a:00141400
#00516:00000023
#00512:0000000000000063
#00513:0000000000000000000000000000000000000000000000000000006300000000
#00514:00000000000000000000000000630000
#00515:0000000000000000000000000000000000000000000000000063000000000000
#00615:0000130000130000
#0061a:0000001400000000
#00612:0000000000000014
#0061b:0000000000000013
#00618:26
#00715:0000130000130000
#00718:0013000000001300
#0071a:0000001400000000
#00712:0000001300000000
#00818:00140000
#0081a:0000000000140000
#00816:00000014
#00812:0000000000000014
#00916:00000000001400000000000000000000
#00915:0014
#0091a:0014
#01016:0000001300130013
#0101b:00131313
#01118:0013130000001300
#01112:00000013
#01115:0013
#0111b:0013
#01215:0000001300000013
#01218:0000131300001300
#0121b:0000000000000013
#01210:41
#01318:0013000000001300
#01315:0000130000000013
#0131b:0000130000130000
#01418:0000001300000013
#01415:0000131300001300
#01412:1300000000000013
#01515:0013000000001300
#01518:00130000
#01512:0000130000130000
#01615:0013001300000000
#01618:00131300
#01612:0000000000000013
#0161b:0000000000000013
#01712:0000001300000000
#01715:0013000013000000
#0171b:0000001300000000
#01718:0013000013000000
#01815:0000001300000000
#01812:2313
#0181b:2313
#01818:0000240000130013
#01814:00000024
#01915:0013000000000000
#01918:00241300
#01912:0013
#01914:00000024
#0201b:13
#02012:13
#02015:0000001300000000
#02017:0000000000130000
#02019:00000013
#02018:00240000
#02014:00000024
#02112:0013000000000000
#02118:00240013
#0211b:0013
#02114:00000024
#02212:1300000013000013
#02215:0000001300000000
#0221b:0013
#02218:0000240000130013
#02214:00000024
#02318:0000240000000013
#02315:0013001300000000
#0231b:0000001300000000
#02314:00000024
#02412:1300002400000023
#02415:0013000000001300
#0241b:0000001300000000
#02418:0000130000130000
#0241a:2400000000000024
#02410:41
#02614:00130013
#0261f:11
#0261a:2400002424000000
#02617:0000000000000024
#02714:00130013
#02717:0024002424000000
#0301b:1300000000000013
#03018:0013000000001300
#03015:0000130000130000
#03012:0000001300000000
#03118:0013000000001300
#03115:0000130000130000
#03112:0000001300000000
#0311b:0000000000000013
#03116:0000000000000013
#03212:00001313
#0321b:0013
#03216:0014000000000000
#03214:0000230000000053
#03219:00230000
#03213:00000000000000000000000000530000
#03215:00000000000000000000000000000053
#03416:0014000000000000
#03412:0000000013000013
#0341b:0013
#03418:0000000000130000
#03415:00000013
#03417:0000000000000013
#03414:00230000
#03419:00230000
#03317:0000130000005313
#03315:00530000000000001300000000000000
#0331b:1353
#03312:00530013
#03316:53
#03314:0053000000000000
#03313:00000053000000000000000000000000
#03318:00000000005300000000005300000000
#03319:0000005300530000
#0331a:00000000000000530053000000000000
#0351b:0000000013002313
#03516:0000001300130023
#03612:00000000333314000000000000000000
#03616:00000000333314000034343434340000
#03613:00000000000000341400000000000000
#03617:00000000000000341400000000000000
#0361f:0000000000000021
#0361a:00000000000000000034343434340000
#03712:0013000000000013
#03715:00130000
#03718:0000001300001300
#0371b:0000000013000013
#03710:0041
#03815:0013001300000000
#0381b:00130000
#0391b:0013000000000023
#03918:00130000
#03915:0000001300002300
#03912:0000000013000023
#0411b:0013000000000000
#04118:00130000
#04115:0000001300000000
#04112:00002313
#04117:0000000013000024
#04212:0013000000000000
#04215:0000130000000024
#04218:0000001300000000
#0421b:00002313
#04216:0013
#0431b:0013000000000013
#04318:00130000
#04315:0000001300000000
#04312:00002313
#04317:0013
#04412:0013000000130026
#04417:00130000
#04415:0000001300000000
#0441b:0000000000130000
#04418:0000000000000026
#0451b:0013000000000000
#04512:00130000
#04518:0000001300001300
#04515:0000000000000013
#04519:00000000000000530000000000000000
#0451a:0053
#0461a:0013000000000000
#04613:0000000000130000
#04612:0013000000000000
#04618:0000001300000000
#0461b:0000000000130000
#04615:0000000000000013
#04619:00130000
#04614:00000013
#05916:0000000000140000
#0591a:0024
#05919:0000000000000025
#0591b:0023000000000000
#05918:00230000
#05915:0000002300000000
#05912:00002323
#04718:00130013
#04712:0000001300000000
#04715:0000000000130023
#0471b:0000001300000023
#04816:00000014
#04817:00130000
#04812:00232300
#0481b:00000023
#04918:0000240000130013
#04915:0000001300001300
#0491a:24
#04910:41
#05012:13
#0501b:1313
#05015:0000130000130013
#05018:0000001300001300
#05112:13131313
#0511a:2400000000240000
#05117:0000242400000024
#05215:00131400
#05212:00001300000000000000001400000000
#05218:0000001300000000
#0521a:0000000014000014
#05316:14
#0531a:00140000
#05312:0000001400000000
#0571b:0013000000000023
#05718:00131300
#05715:0000001300002300
#05712:0000000013000023
#06314:0014000000140000
#06316:00140014
#06318:0000001400000014
#06312:0000000014000014
#0631a:0014
#0641a:0014001400000024
#06416:00140000
#06412:0000001400000024
#06414:0000000000240000
#06417:00000024
#06616:00150000000015000000000000001500
#06615:0000000000150000
#06612:0025
#06619:00250025
#06715:0000001500000000
#0671a:0000240000140000
#06717:00000014
#06714:0000000000000014
#06712:25
#06812:14
#06813:0014000000000000
#06814:00140000
#06817:24
#06818:0024000000000000
#06819:00240000
#0681a:0000002400000000
#06915:0014001400140000
#06912:0000140000000016
#06918:1414
#0691a:00240024
#06910:41
#07012:00140014
#0701a:0014000014000000
#07016:00242424
#07117:0000001400140000
#0711a:24140000
#07118:0000000000000016
#07114:0014
#07116:14
#07112:00240024
#07218:00000014000000000000000000000000
#07219:00000000001400000000000000000000
#0721a:00000000000000140000001400000000
#07212:0000000014000014
#07215:0024000000000000
#07214:00240000
#07213:0000002400000000
#07315:0013002300001400
#07318:0000130000140000
#0731a:24
#0731b:0000002300000000
#07312:0000000000000024
#07317:0000000000000024
#07512:0013
#0751b:0013
#07518:00000013
#07516:0000000000000013
#07514:00230000
#07519:00230000
#07412:0000000000000013
#0741b:0000000000000013
#07417:00140000
#07414:00001400000000000000001400000000
#07418:0000000000141400
#0741a:0000002400000000
#07415:0000002500000000
#07619:1300001300000000
#07614:1300001300000000
#0761b:0013000000000000
#0761a:00130000
#07612:0013000000000000
#07613:00130000
#07615:00000013
#07618:0000000000000023
#07813:00000000240000000014000000000000
#07819:00000013000000002500150015001500
#07814:00000000000000000000001400000000
#07815:00001300000000000000000000140000
#07818:0000001400000000
#07812:63000000000000140000000000000000
#07817:53
#05418:00142424
#05414:0000001400240000
#05412:000000000000000000000054000000000064000000260000
#05419:000000000000005400000000006400000000006400000000
#0541a:000000005400006400006400
#05413:000000000054000064000000
#02819:0000130000001313
#02814:0000000000000013
#02812:2400002424000000
#06118:0013001300130026
#06115:00130013
#06112:0013
#0611b:0013
#0771b:00130053
#0771a:24000000005300000000005300530000
#07712:26
#07719:0000005300530053
#07718:00000000000000530053000000000053
#07717:0053
#0621a:0000000000140000
#06216:00000000000000000000003414340000
#06218:0000000000000026
#06215:0026000000000000
#06212:0000002600000000
#06016:0000000000140000
#06012:0023000024000025
#06015:00230000
#06018:0000002300000000
#0601b:00002323
#02516:00000014
#0251b:0013000000001300
#02518:0000001300000000
#02512:00000000130000002400000000343434
#0251a:0024
#02913:00130000
#0291a:0000130000242400
#02912:0000000000242400
#04018:0023002300000000
#04012:00230000
#05518:0000000000000023
#05515:0000000000000023
#05618:0023002400250026
#05615:0023000000000000
#05613:0000000000250000
#05612:0000000000000026
#05614:0000002400000000
#05610:0000000000000041
#0791a:00240000
#07916:00540000
#07914:00000000000000000000000000000000005400000000000000000000000000000000000000000000000000000000000000000000000000000000000000000000
#07912:0000000000000000005400000000000000000000000000000000000000000000
#06513:00250000
#06518:00250000
#06512:0000000000250025
#06519:0000000000250025
#06516:00000025
#05818:0023002300000000
#05815:00230000
#08212:0000005a00000000
#00258:14
#0025b:0000000000000053
#00255:53
#00254:0000000000000014
#00452:1500000000000064
#00457:64
#00459:0000000000000015
#0065a:0000001400000000
#00652:0000000000000014
#00658:16
#0075a:0000001400000000
#00955:0054
#0095a:0054
#00956:00000000002400000000000000000000
#00852:0000000000000054
#01057:13
#01052:13
#01056:0000000000000053
#01255:0000005300000000
#01355:00530000
#01158:00530053
#0115b:0053
#01458:0000006300000000
#01558:00530000
#0185b:13
#01852:13
#01858:0000000000000053
#01652:0000000000000053
#01658:0053
#0165b:0000000000000063
#01752:0000005300000000
#01755:0053000053000000
#0175b:0000006300000000
#01758:0063000063000000
#01958:0053
#02052:53
#02055:0000001300000000
#02152:0053000000000000
#02158:00000053
#0215b:0053
#0225b:13
#02252:13
#02258:0000000000000013
#0245a:1400000000000014
#02452:0000001400000000
#0235b:0000005300000000
#02355:0000001300000000
#03252:0013
#0325b:0013
#03156:0000000000000063
#03357:0000000000000053
#03452:0000000000000053
#03457:0000000000000053
#03652:0000002400000000
#03656:0000002400000014
#03653:0054
#03657:0054
#0365a:0000000000000014
#03855:0000005300000000
#0385b:00530000
#03852:0000000000000014
#03856:0000000000000014
#04058:0000005300000000
#04052:00530000
#04056:0000000000000014
#0405a:0000000000000014
#04157:0000000053000014
#04256:0063
#04255:0000000000000014
#0435b:0000000000000053
#04357:0053
#04455:0000005300000000
#04457:00530000
#04452:0000000000230016
#0445b:0000000000230000
#04458:0000000000000016
#04555:0000000000000053
#04652:0023000000000000
#04658:0000006300000000
#0465b:0000000000230000
#04655:0000000000000053
#05956:0000000000240000
#0595a:0054
#05959:0000000000000015
#04856:00000054
#04857:00630000
#04852:0063
#0495a:14
#04955:0000005300000000
#04952:14
#0505b:13
#05052:13
#05157:0000000000000014
#05356:14
#05352:0000006400000000
#0525a:0054
#05252:00000000000000000000006400000000
#05452:0000000000000016
#05455:16
#05558:0000000000000043
#05555:0000000000000033
#05658:0043004400450046
#05655:0033000000000000
#05653:0000000000350000
#05652:0000000000000036
#05654:0000003400000000
#05758:0013
#06258:0000000000000016
#0625a:0000000000540000
#06256:00000024
#06255:0016000000000000
#06252:0000001600000000
#06452:0000001400000054
#0645a:0000001400000054
#06352:0000000000000024
#06552:0000000000000055
#06559:0000000000000045
#06553:00150000
#06558:00150000
#06652:00355535
#06659:00654565
#06656:00250000000025000000000000002500
#06655:0000000000250000
#06759:45
#06752:55
#06755:0000001500000000
#0735a:14
#07355:0000006300000000
#07357:0000000000000054
#07552:0013
#0755b:0013
#07452:0000000000000063
#0745b:0000000000000053
#07455:0000006500000000
#07654:0000005300000000
#07659:0000005300000000
#0775a:14
#07752:56
#0795a:00440000
#05858:0000005300000000
#05855:00530000
#05852:0000000000000014
#0585a:0000000000000014
#03556:0000000000000053
#0355b:0000000000000053
#0725a:00000000000000000000005400000000
#07252:0000000064000014
#06855:00000014
#0685a:00000014
#06056:0000000000240000
#06052:0000000064000015
#07158:0000000000000046
#0715a:14
#06952:0000000000000036
#02652:14
#02556:00000054
#02854:0000000000000053
#02859:0000000000000053
#02953:00530000
#0295a:00530000
#0475b:0000000000000053
#04755:0000000000000013
#06158:0000000000000016
#002350:13
#002320:0023
#0023b0:0000000000000013
#003370:0023
#004370:14
#0043a0:0024
#004320:0000000000000014
#005360:0024
#008340:14240000
#008330:0000001400240000
#008320:0000000000000014
#009360:00000000005400000000000000000000
#009350:0054
#010320:23
#0093a1:0014
#010371:23
#010361:0000000000000013
#011321:00230000
#011380:00130033
#0113b0:0033
#0123b0:23
#012351:1300003300000000
#012321:00000023
#013351:00130000
#013321:0000000000230000
#014381:1300003300000000
#0143b1:00000023
#015381:00130000
#0153b1:0000000000230000
#015381:0000000000000013
#016381:0023000000000000
#016381:0013
#0163b1:0000000000000033
#017381:0033000033000000
#0173b1:0000003300000000
#0183b1:23
#016320:0000000000000013
#017350:0033000033000000
#017320:0000003300000000
#018320:23
#018380:0000000000000013
#0193b0:0023000000000000
#019380:0013
#0193b0:00000023
#020320:13
#020350:00230000
#0203b0:0000000000000013
#0213b0:0023000000000000
#021321:0013000000000000
#021351:0023
#0213b0:0013
#021380:00000033
#0223b0:23
#0233b0:0000001300000000
#023380:00000023
#024320:0000000000000013
#025340:0025000000000000
#025360:00000014
#025320:00000000000000000000000000343434
#026320:24
#0263a0:00001424
#027370:00001424
#028320:00001424
#028340:0000000000000013
#029350:0023000000000000
#028391:0000000000000013
#029381:0023000000000000
#029331:00130000
#029351:0023
#0293a0:00130000
#029380:0023
#030380:0000001400240000
#030330:0000000000000015
#031330:0025000000000000
#031380:0000001600260000
#031360:0000000000000013
#032320:0023000000000000
#033370:0000000000000013
#0343b0:0023000000000000
#034370:0000000000000013
#0353b0:00230000
#034321:0000000000000013
#035361:00230000
#0353b1:0000000000001353
#036361:00000000333334000000000000000000
#036371:00000000000000343400000000000000
#0363a1:00000000000000000034343434342400
#035360:0000000000000013
#036320:00000000333334000000000000000000
#036330:00000000000000343400000000000000
#036360:00000000000000000034343434342400
#037350:00001323
#0383b0:00130000
#038360:0000000000005424
#038351:0000001300000000
#038321:0000000000005424
#039381:00001323
#040321:00130000
#040361:0000000000005424
#040380:0000001300000000
#0403a0:0000000000005424
#041370:0013
#0413b0:00000023
#042360:0013
#042320:00000023
#043370:0013
#0433b0:00000023
#0433b0:0000000000000013
#044370:0023000000000000
#044370:00130000
#0443b0:0000000000530000
#044380:0000000000000026
#044351:0000001300000000
#044321:0000000000530026
#045351:00001323
#045351:0000000000000013
#046321:0053000000000000
#046351:0000002300000000
#046380:0000001300000023
#0463b0:0000000000530000
#046351:0000000000000013
#047321:00230000
#0473b1:0000000000000013
#048371:00330000
#0483b1:0023
#048320:0013
#048360:00000034
#049320:24
#049350:0000001300000000
#049320:0000000000230000
#0523a0:0014
#052360:00000000000000000000002400000000
#052321:00000000000000000000001400000000
#052361:0000000000000024
#053321:0000001400000000
#054351:26
#055391:0000000000130000
#055381:00000000000000000000003333002300
#055340:0000000000130000
#055350:00000000000000000000003333002300
#058350:00130000
#058320:0000000000005424
#058381:0000001300000000
#0583a1:0000000000005424
#0593a1:0014
#059361:0000000000540000
#059391:00000025
#060321:00001425
#060361:0000000000540000
#0623a1:0000000000140000
#062361:00000000000000000000003434340000
#062381:0000000000000026
#063321:0000000000000014
#064361:0024000000000000
#0643a1:0000000000000014
#065381:0024000000000000
#064320:0000000000000014
#065340:0024000000000000
#065320:0000000000000015
#066360:00550000000000000000000000000000
#066320:00250000
#066391:00152500
#066361:0000005500000000
#066320:00001525
#066350:0000000000550000
#066391:00000015
#066361:0000000000000055
#067391:25
#067320:15
#067350:00250000
#0683a0:000000000000000000000000000000000000140000000000000000000000000000000054240000000000000000000000
#068370:000000000000000000000000000000000000000000000000000000000000000000000000000000540054005400540054005400540054005400540054005400540054005400000000000000000000000000000000000000000000000000000000
#068380:000000000000000000000000000000000000000000000000000000000000000000000000000000005400540054005400540054005400540054005400540054005400540000540000000000000000000000000000000000000000000000000000
#068390:000000000000000000000000000000000000000000000000000000000000000000000000000000000000000000000000000000000000000000000000000000000000000054000054000000000000000000000000000000000000000000000000
#068351:000000000000000000000000000000000000140000000000000000000000000000000054240000000000000000000000
#068321:000000000000000000000000000000000000000000000000000000000000000000000000000000540054005400540054005400540054005400540054005400540054005400000000000000000000000000000000000000000000000000000000
#068331:000000000000000000000000000000000000000000000000000000000000000000000000000000005400540054005400540054005400540054005400540054005400540000540000000000000000000000000000000000000000000000000000
#068341:000000000000000000000000000000000000000000000000000000000000000000000000000000000000000000000000000000000000000000000000000000000000000054000054000000000000000000000000000000000000000000000000
#072321:0014
#072361:00000000000000000000002400000000
#0723a0:00000000000000000000001400000000
#072360:0000000000000024
#073350:0000001300000000
#073320:0000000000230000
#073370:0000000000000014
#0743a0:0024000000000000
#074350:0000001500000000
#074320:0000000000250000
#074320:0000000000000013
#075350:0023000000000000
#0743b1:0000000000000013
#075381:0023000000000000
#076341:0000001300000000
#076351:0000000053230000
#076390:0000001300000000
#076380:0000000053230000
#077320:16
#078320:23
#078360:00000000000000000000000000000014
#079360:00240000
#079320:0000000000000000001400000000000000000000000000000000000000000000
#082320:0000002a00000000
#005960:00000013
#005920:0000000000000023
#032920:00000013
#033960:53
#033920:00230000
#033971:00130023
#0339b1:0053
#045981:0000001300000000
#0459a1:0023
#054981:00140000
#0549a1:000000000000000000000000000000000000000000000000000000000000000000000000000000000000000000000000000000000000000000000000000000000000000000000000000000000000000000000000000000000000000000000000000000000000000000000000000000000000000000000000000000000000000000000000000000000000000000000000000000000000000000000000000000000000000000000000000000000000000000000000000000000000000000000000000000000000000000000000000000000000000000000000000000000000000000000000000000000000000000000000000000000000000000000000000000000000000000000000000000000000000000000000000000000000000000000000000000000000000000000000000000000000000000000000000000000000000000000000000000000000000000000000000000000000000000000000000000000000000000000000000000000000000000000000000000000000000000000000000000000000000000000000000000000000000000000000000000000000000000000000000000000000000000000000000000000000000000000000000000000000000000000000000000000000000000000000000000000000000000000000000000000000000000000000000000000000000000000000000000000000000000000000000000000000000000000000000000000000000000000000000000000000000000000000000000000000000000000000000000000000000000000000000000000000000000000000000000000000000000000000000000000000000000000000000000000000000000000000000000000000000000000000000000542400000000000000000000000000000000000000000000000000000000000000000000000000000000000000000000000000000000000000000000000000000000000000000000000000000000000000000000000000000000000000000000000000000000000000000000000000000000000000000000000000000000000000000000000000000000000000000000000000000000000000000000000000000000000000000000000000000000000000000000000000000000000000000000000000000000000000000000000000000000000000000000000000000000000000000000000000000000000000000000000000000000000000000000000000000000000000000000000000000000000000000000000000000000000000000000000000000000000000000000000000000000000000000000000000000000000000000000000000000000000000000000000000000000000000000000000000000000000000000000000000000000000000000000000000000000000000000000000000000000000000000000000000000000000000000000000000000000000000000000000000000000000000000000000000000000000000000000000000000000000000000000000000000000000000000000000000000000000000000000000000000000000000000000000000000000000000000000000000000000000000000000000000000000000000000000000000000000000000000000000000000000000000000000000000000000000000000000000000000000000000000000000000000000000000000000000000000000000000000000000000000000000000000000000000000000000000000000000000000000000000000000000000000000000000000000000000000000000000000000000000000000000000000000000000000000000000000000000000000000000000000000000000000000000000000000000000000000000000000000000000000000000000000000000000000000000000000000000000000000000000000000000000000000000000000000000000000000000000000000000000000000000000000000000000000000000000000000000000000000000000000000000000000000000000000000000000000000000000000000000000000000000000000000000000000000000000000000000000000000000000000000000000000000000000000000000000000000000000000000000000000000000000000000000000000000000000000000000000000000000000000000000000000000000000000000000000000000000000000000000000000000000000000000000000000000000000000000000000000000000000000000000000000000000000000000000000000000000000000000000000000000000000000000000000000000000000000000000000000000000000000000000000000000000000000000000000000000000000000000000000000000000000000000000000000000000000000000000000000000000000000000000000000000000000000000000000000000000000000000000000000000000000000000000000000000000000000000000000000000000000000000000000000000000000000000000000000000000000000000000000000000000000000000000000000000000000000000000000000000000000000000000000000000000000000000000000000000000000000000000000000000000000000000000000000000000000
#054941:0000001400000000
#054921:000000000000000000000000000000000000000000000000000000000000000000000000000000000000000000000000000000000000000000000000000000000000000000000000000000000000000000000000000000000000000000000000000000000000000000000000000000000000000000000000000000000000000000000000000000000000000000000000000000000000000000000000000000000000000000000000000000000000000000000000000000000000000000000000000000000000000000000000000000000000000000000000000000000000000000000000000000000000000000000000000000000000000000000000000000000000000000000000000000000000000000000000000000000000000000000000000000000000000000000000000000000000000000000000000000000000000000000000000000000000000000000000000000000000000000000000000000000000000000000000000000000000000000000000000000000000000000000000000000000000000000000000000000000000000000000000000000000000000000000000000000000000000000000000000000000000000000000000000000000000000000000000000000000000000000000000000000000000000000000000000000000000000000000000000000000000000000000000000000000000000000000000000000000000000000000000000000000000000000000000000000000000000000000000000000000000000000000000000000000000000000000000000000000000000000000000000000000000000000000000000000000000000000000000000000000000000000000000000000000000000000000000000000000000000000000000000000000000000000000000000000000000000000000000000000000000000000000000000000000000000000000000000000000000000000000000000000000000000000000000000000000000000000000000000000000000000000000000000000000000000000000000000000000000000000000000000000000000000000000000000000000000000000000000000000000000000000000000000000000000000000000000000000000000000000000000000000000000000000000000000000000000000000000000000000000000000000000000000000000000000000000000000000542400000000000000000000000000000000000000000000000000000000000000000000000000000000000000000000000000000000000000000000000000000000000000000000000000000000000000000000000000000000000000000000000000000000000000000000000000000000000000000000000000000000000000000000000000000000000000000000000000000000000000000000000000000000000000000000000000000000000000000000000000000000000000000000000000000000000000000000000000000000000000000000000000000000000000000000000000000000000000000000000000000000000000000000000000000000000000000000000000000000000000000000000000000000000000000000000000000000000000000000000000000000000000000000000000000000000000000000000000000000000000000000000000000000000000000000000000000000000000000000000000000000000000000000000000000000000000000000000000000000000000000000000000000000000000000000000000000000000000000000000000000000000000000000000000000000000000000000000000000000000000000000000000000000000000000000000000000000000000000000000000000000000000000000000000000000000000000000000000000000000000000000000000000000000000000000000000000000000000000000000000000000000000000000000000000000000000000000000000000000000000000000000000000000000000000000000000000000000000000000000000000000000000000000000000000000000000000000000000000000000000000000000000000000000000000000000000000000000000000000000000000000000000000000000000000000000000000000000000000000000000000000000000000000000000000000000000000000000000000000000000000000000000000000000000000000000000000000000000000000000000000000000000000000000000000000000000000000000000000000000000000000000000000000000000000000000000000000000000000000000000000000000000000000000000000000000000000000000000000000000000000000000000000000000000000000000000000000000000000000000000000000000000000000000000000000000000000000000000000000000000000000000000000000000000000000000000000000000000000000000000000000000000000000000000000000000000000000000000000000000000000000000000000000000000000000000000000000000000000000000000000000000000000000000000000000000000000000000000000000000000000000000000000000000000000000000000
#054981:0014
#0549a1:000000000000000000000000000000000000000000000000000000000000000000000000000000000000000000000000000000000000000000000000000000000000000000000000000000000000000000000000000000000000000000000000000000000000000000000000000000000000000000000000000000000000000000000000000000000000000000000000000000000000000000000000000000000000000000000000000000000000000000000000000000000000000000000000000000000000000000000000000000000000000000000000000000000000000000000000000000000000000000000000000000000000000000000000000000000000000000000000000000000000000000000000000000000000000000000000000000000000000000000000000000000000000000000000000000000000000000000000000000000000000000000000000000000000000000000000000000000000000000000000000000000000000000000000000000000000000000000000000000000000000000000000000000000000000000000000000000000000000000000000000000000000000000000000000000000000000000000000000000000000000000000000000000000000000000000000000000000000000000000000000000000000000000000000000000000000000000000000000000000000000000000000000000000000000000000000000000000000000000000000000000000000000000000000000000000000000000000000000000000000000000000000000000000000000000000000000000000000000000000000000000000000000000000000000000000000000000000000000000000000000000000000000000000000000000000000000000000000000000000000000000000000000000000000000000000000000000000000000000000000000000000000000000000000000000000000000000000000000000000000000000000000000000000000000000000000000000000000000000000000000000000000000000000000000000000000000000000000000000000000000000000000000000000000000000000000000000000000000000000000000000000000000000000000000000000000000000000000000000000000000000000000000000000000000000000000000000000000000000000000000000000000000000000000000000000000000000000000000000000000000000000000000000000000000000000000000000000000000000000000000000000000000000000000000000000000000000000000000000000000000000000000000000000000000000000000000000000000000000000000000000000000000000000000000000000000000000000000000000000000000000000000000000000000000000000000000000000000000000000000000000000000000000000000000000000000000000000000000000000000000000000000000000000000000000000000000000000000000000000000000000000000000000542400000000000000000000000000000000000000000000000000000000000000000000000000000000000000000000000000000000000000000000000000000000000000000000000000000000000000000000000000000000000000000000000000000000000000000000000000000000000000000000000000000000000000000000000000000000000000000000000000000000000000000000000000000000000000000000000000000000000000000000000000000000000000000000000000000000000000000000000000000000000000000000000000000000000000000000000000000000000000000000000000000000000000000000000000000000000000000000000000000000000000000000000000000000000000000000000000000000000000000000000000000000000000000000000000000000000000000000000000000000000000000000000000000000000000000000000000000000000000000000000000000000000000000000000000000000000000000000000000000000000000000000000000000000000000000000000000000000000000000000000000000000000000000000000000000000000000000000000000000000000000000000000000000000000000000000000000000000000000000000000000000000000000000000000000000000000000000000000000000000000000000000000000000000000000000000000000000000000000000000000000000000000000000000000000000000000000000000000000000000000000000000000000000000000000000000000000000000000000000000000000000000000000000000000000000000000000000000000000000000000000000000000000000000000000000000000000000000000000000000000000000000000000000000000000000000000000000000000000000000000000000000000000000000000000000000000000000000000000000000000000000000000000000000000000000000000000000000000000000000000000000000000000000000000000000000000000000000000000000000000000000000000000000000000000000000000000
#054941:0000000000140000
#054921:000000000000000000000000000000000000000000000000000000000000000000000000000000000000000000000000000000000000000000000000000000000000000000000000000000000000000000000000000000000000000000000000000000000000000000000000000000000000000000000000000000000000000000000000000000000000000000000000000000000000000000000000000000000000000000000000000000000000000000000000000000000000000000000000000000000000000000000000000000000000000000000000000000000000000000000000000000000000000000000000000000000000000000000000000000000000000000000000000000000000000000000000000000000000000000000000000000000000000000000000000000000000000000000000000000000000000000000000000000000000000000000000000000000000000000000000000000000000000000000000000000000000000000000000000000000000000000000000000000000000000000000000000000000000000000000000000000000000000000000000000000000000000000000000000000000000000000000000000000000000000000000000000000000000000000000000000000000000000000000000000000000000000000000000000000000000000000000000000000000000000000000000000000000000000000000000000000000000000000000000000000000000000000000000000000000000000000000000000000000000000000000000000000000000000000000000000000000000000000000000000000000000000000000000000000000000000000000000000000000000000000000000000000000000000000000000000000000000000000000000000000000000000000000000000000000000000000000000000000000000000000000000000000000000000000000000000000000000000000000000000000000000000000000000000000000000000000000000000000000000000000000000000000000000000000000000000000000000000000000000000000000000000000000000000000000000000000000000000000000000000000000000000000000000000000000000000000000000000000000000000000000000000000000000000000000000000000000000000000000000000000000000000000000000000000000000000000000000000000000000000000000000000000000000000000000000000000000000000000000000000000000000000000000000000000000000000000000000000000000000000000000000000000000000000000000000000000000000000000000000000000000000000000000000000000000000000000000000000000000000000000000000000000000000000000000000000000000000000000000000000000000000000000000000000000000000000000000000000000000000000000000000000000000000000000000000000000000000000000000000000000000000000000000000000000000000000000000000000000000000000000000000000000000000000000000000000000000000000000000000000000000000000000000000000000000000000000000000000000000000000000000000000000000000000000000000000000000000000000000000000000000000000000000000000000000000000000000000000000000000000000000000000000000000000000000000000000000000000000000000000000000000000000000000000000000000000000000000000000000000000000000000000000000000000000000000000000000000000000000000000000000000000000542400000000000000000000000000000000000000000000000000000000000000000000000000000000000000000000000000000000000000000000000000000000000000000000000000000000000000000000000000000000000000000000000000000000000000000000000000000000000000000000000000000000000000000000000000000000000000000000000000000000000000000000000000000000000000000000000000000000000000000000000000000000000000000000000000000000000000000000000000000000000000000000000000000000000000000000000000000000000000000000000000000000000000000000000000000000000000000000000000000000000000000000000000000000000000000000000000000000000000000000000000000000000000000000000000000000000000000000000000000000000000000000000000000000000000000000000000000000000000000000000000000000000000000000000000000000000000000000000000000000000000000000000000000000000000000000000000000000000000000000000000000000000000000000000000000000000000000000000000000000000000000000000000000000000000000000000000000000000000000000000000000000000000000000000000000000000000000000000000000000000000000000000000000000000000000000000000000000000000000000000000000000000000000000000000000000000000
#054981:00000014
#0549a1:000000000000000000000000000000000000000000000000000000000000000000000000000000000000000000000000000000000000000000000000000000000000000000000000000000000000000000000000000000000000000000000000000000000000000000000000000000000000000000000000000000000000000000000000000000000000000000000000000000000000000000000000000000000000000000000000000000000000000000000000000000000000000000000000000000000000000000000000000000000000000000000000000000000000000000000000000000000000000000000000000000000000000000000000000000000000000000000000000000000000000000000000000000000000000000000000000000000000000000000000000000000000000000000000000000000000000000000000000000000000000000000000000000000000000000000000000000000000000000000000000000000000000000000000000000000000000000000000000000000000000000000000000000000000000000000000000000000000000000000000000000000000000000000000000000000000000000000000000000000000000000000000000000000000000000000000000000000000000000000000000000000000000000000000000000000000000000000000000000000000000000000000000000000000000000000000000000000000000000000000000000000000000000000000000000000000000000000000000000000000000000000000000000000000000000000000000000000000000000000000000000000000000000000000000000000000000000000000000000000000000000000000000000000000000000000000000000000000000000000000000000000000000000000000000000000000000000000000000000000000000000000000000000000000000000000000000000000000000000000000000000000000000000000000000000000000000000000000000000000000000000000000000000000000000000000000000000000000000000000000000000000000000000000000000000000000000000000000000000000000000000000000000000000000000000000000000000000000000000000000000000000000000000000000000000000000000000000000000000000000000000000000000000000000000000000000000000000000000000000000000000000000000000000000000000000000000000000000000000000000000000000000000000000000000000000000000000000000000000000000000000000000000000000000000000000000000000000000000000000000000000000000000000000000000000000000000000000000000000000000000000000000000000000000000000000000000000000000000000000000000000000000000000000000000000000000000000000000000000000000000000000000000000000000000000000000000000000000000000000000000000000000000000000000000000000000000000000000000000000000000000000000000000000000000000000000000000000000000000000000000000000000000000000000000000000000000000000000000000000000000000000000000000000000000000000000000000000000000000000000000000000000000000000000000000000000000000000000000000000000000000000000000000000000000000000000000000000000000000000000000000000000000000000000000000000000000000000000000000000000000000000000000000000000000000000000000000000000000000000000000000000000000000000000000000000000000000000000000000000000000000000000000000000000000000000000000000000000000000000000000000000000000000000000000000000000000000000000000000000000000000000000000000000000000000000000000000000000000000000000000000000000000000000000000000000000000000000000000000000000000000000000000000000000000000000000000000000000000000000000000000000000000000000000000000000000000000000000000000000000000000000000000000000000000000000000000000000000000000000000000000000000000000542400000000000000000000000000000000000000000000000000000000000000000000000000000000000000000000000000000000000000000000000000000000000000000000000000000000000000000000000000000000000000000000000000000000000000000000000000000000000000000000000000000000000000000000000000000000000000000000000000000000000000000000000000000000000000000000000000000000000000000000000000000000000000000000000000000000000000000000000000000000000000000000000000000000000000000000000000000000000000000000000000000000000000000000000000000000000000000000000000000000000000000000000000000000000000000000000000000000000000000000000000000000000000000000000000000000000000
#0779b1:00130053
#077971:0053
#078971:23
#079961:00130000
#079921:000000000000000000000000000000000000000000000000000000000000000000000000000000000000000000000000000000000000000000000000000000000000000000000000000000000000000000000000000000000000000000000000000000000000000000000000000000000000000000000000000000000000000000000000000000000000000000000000000000000000000000000000000000000000000000000000000000000000000000000000000000000000000000000000000000000000000000000000000000000000000000000000000000000000000000000000000000000000000000000000000000000000000000000000000000000000000000000000000000000000000000000000000000000000000000000000000000000000000000000000000000000000000000000000000000000000000000000000000000000000000000000000000000000000000000000000000000000000000000000000000000000000000000000000000000000000000000000000000000000000000000000000000000000000000000000000000000000000000000000000000000000000000000000000000000000000000000000000000000000000000000000000000000000000000000000000000000000000000000000000000000000000000000000000000000000000000000000000000000000000000000000000000000000000000000000000000000000000000000005353230000000000000000000000000000000000000000000000000000000000000000000000000000000000000000000000000000000000000000000000000000000000000000000000000000000000000000000000000000000000000000000000000000000000000000000000000000000000000000000000000000000000000000000000000000000000000000000000000000000000000000000000000000000000000000000000000000000000000000000000000000000000000000000000000000000000000000000000000000000000000000000000000000000000000000000000000000000000000000000000000000000000000000000000000000000000000000000000000000000000000000000000000000000000000000000000000000000000000000000000000000000000000000000000000000000000000000000000000000000000000000000000000000000000000000000000000000000000000000000000000000000000000000000000000000000000000000000000000000000000000000000000000000000000000000000000000000000000000000000000000000000000000000000000000000000000000000000000000000000000000000000000000000000000000000000000000000000000000000000000000000000000000000000000000000000000000000000000000000000000000000000000000000000000000000000000000000000000000000000000000000000000000000000000000000000000000000000000000000000000000000000000000000000000000000000000000000000000000000000000000000000000000000000000000000000000000000000000000000000000000000000000000000000000000000000000000000000000000000000000000000000000000000000000000000000000000000000000000000000000000000000000000000000000000000000000000000000000000000000000000000000000000000000000000000000000000000000000000000000000000000000000000000000000000000000000000000000000000000000000000000000000000000000000000000000000000000000000000000000000000000000000000000000000000000000000000000000000000000000000000000000000000000000000000000000000000000000000000000000000000000000000000000000000000000000000000000000000000000000000000000000000000000000000000000000000000000000000000000000000000000000000000000000000000000000000000000000000000000000000000000000000000000000000000000000000000000000000000000000000000000000000000000000000000000000000000000000000000000000000000000000000000000000000000000000000000000000000000000000000000000000000000000000000000000000000000000000000000000000000000000000000000000000000000000000000000000000000000000000000000000000000000000000000000000000000000000000000000000000000000000000000000000000000000000000000000000000000000000000000000000000000000000000000000000000000000000000000000000000000000000000000000000000000000000000000000000000000000000000000000000000000000000000000000000000000000000000000000000000000000000000000000000000000000000000000000000000000000000000000000000000000000000000000000000000000000000000000000000000000000000000000000000000000000000000000000000000000000000000000000000000000000000000000000000000000000000000000000000000000
