This file was generated by Ched 2.7.0.0.
#TITLE ""
#ARTIST ""
#DESIGNER ""
#DIFFICULTY 0
#PLAYLEVEL
#SONGID ""
#WAVE ""
#WAVEOFFSET 0
#JACKET ""
#REQUEST "ticks_per_beat 480"
#00002: 4
#BPM01: 180
#00008: 01
#TIL00: ""
#VOLUME: ""
#HISPEED 00
#MEASUREHS 00
#00118:0000000000130000
#00115:00000013
#00212:0013
#00218:0000000000130000
#00215:00000013
#0021b:0000000000000013
#0021a:24
#0041b:0013
#00415:0000000000130000
#00418:00000013
#00412:2400000000000013
#00518:0013
#00515:00000013
#00618:00130000
#00612:2300000000130000
#00615:0000001300000000
#0061b:23
#00715:00130000
#00718:0013001300000000
#00812:00131300
#00818:0000001300130000
#00815:13000013
#0081b:13
#0091b:0013
#00915:0013
#01015:0000001300130013
#0101b:00131300
#01018:00000013
#01112:0033000000001300
#0111b:0013
#01115:0013
#01118:00000013
#01215:1300001300000000
#01218:00130013
#0121b:1300000000000033
#01210:41
#01315:0000000000130000
#01318:00000013
#01312:0000000000000013
#0141b:13
#01418:0000001300000000
#01415:00130013
#01412:0000000000000033
#01615:0000130013000013
#01618:0000001300000013
#01515:00000013
#01518:0000000000130013
#01715:0013
#01712:0013000000000000
#01718:0013
#0171b:0013000000000000
#02212:13
#0221b:0000001300000013
#02215:00001313
#02218:0000000000130000
#0231b:0000000000000013
#02315:0013000000000000
#02318:00130000
#02312:0000001300000000
#02418:0013002300000000
#02412:00130000
#02415:2300000000130023
#0241b:00000013
#02410:41
#02618:13130000
#02612:0013001300000000
#02615:0000000000000013
#0261f:11
#02715:00000013
#0271b:0000000000000013
#02718:0000000000130000
#02812:1300000000130000
#0281b:0013000000130000
#02815:00130000
#02818:0000001300000000
#02814:0000000000000013
#02819:0000000000000013
#03115:00000013
#03118:0000000000000013
#03218:0014
#03214:00240000
#0341a:0000000000000014
#03412:0014
#03418:0000240000140000
#03414:00000014
#0351a:0014
#03514:0000000000140000
#03518:00000014
#03512:0000001400000024
#03616:00150000
#03615:00000000000000150000000000000000
#0361f:0000000000000021
#0371b:0013000000000000
#03715:0000130000000014
#03718:0000001300000000
#03712:0013
#0371a:00000014
#03710:0041
#03817:0014001400000000
#03812:00140000
#04117:0014000000000000
#04112:00140000
#0411a:0000001400000024
#04115:0014
#04317:0014000000000000
#04312:00140000
#0431a:0000001400000014
#04315:0014
#04412:0000001400000000
#04414:0014000000000000
#04418:00140000
#04415:0000000000000025
#0451b:0013000000000000
#04512:00130000
#04518:0000001300001300
#04515:0000000013000013
#0471b:0000000000130000
#04718:0000001300000023
#04712:0013
#04715:00000013
#0491b:0000000000130000
#04912:00000013
#04918:0000000000000013
#04915:14
#0491a:24
#04910:41
#0501b:0000000000130000
#05015:00000013
#05018:0000001300000013
#05012:0013
#05215:0000001300000000
#05212:0013000000000000
#05218:00130000
#0521b:0013
#05219:00000000000000000000003300000000
#0541a:0000000014000064
#05419:000000000000000000000000005400000000000054000000
#05418:000000000000000000000000000054000000005400000000
#05417:0000000000545400
#05416:000000000000000000000000000000005454000000000000
#05312:0000331300000000
#05315:13000000000000000000001400000000
#06318:00130000
#06312:0013000000000000
#06319:0013
#06313:0000001300000000
#0631a:00000013
#06314:0000000000130000
#06315:0000000000000013
#06418:0000130000240000
#06415:0000001300000000
#06414:00000024
#0641a:0000000000000024
#0671b:0000000000130000
#06715:00000013
#06718:0000000000000013
#06712:14
#0691a:0014000000140000
#06918:0000001400000014
#06914:1414
#06912:00240024
#06910:41
#07114:0000001400000014
#07112:2400000000140000
#07118:0014
#0711a:00240024
#07515:00000013
#07518:0000000000000013
#07512:0014
#0751a:0014
#07514:00240000
#0761b:0013000000000000
#07612:13
#07615:00130014
#07618:0000001300000000
#0761a:0000000000000024
#00318:00000000001300000000000000000000
#01818:0000001300130000
#01815:00131300
#01812:23000013
#0181a:0000000000000014
#0181b:23
#0201b:1300000000000013
#02015:00130013
#02018:0000001300130000
#02012:0013
#02115:0013
#02118:00000013
#01912:0014
#03315:1300000000000013
#03318:00130013
#0331b:0013
#03312:0000000000130000
#03912:0013000000002400
#03918:00130000
#0391b:0013
#03915:0000001300000000
#03917:0000000000000024
#04215:0014000000000000
#0421a:00140000
#04212:0000001400000024
#04217:0014
#0461b:0000001300000000
#04618:0000000000000013
#04612:0000001300000000
#04615:0000000000000013
#04815:0014
#04812:00140014
#0481a:0024
#04817:00240024
#05714:0000001400001400
#05718:0000140000000014
#0571a:0014
#06118:0014000000140000
#06114:00140014
#0611a:0000001400000024
#06112:0014
#06218:0000140000140000
#06214:0014000000001400
#0621a:0000000000000024
#06212:0000002400000000
#06517:0034140000000000
#06514:0000000000240000
#06518:00000024
#06512:0000000000000024
#07218:00130000
#07215:0000001300000000
#0721b:0013
#07219:00000000000000000000003300000000
#07315:23130000
#07317:00000014
#07312:0000000000140024
#0731a:0013002300000000
#07419:0015002500000000
#07412:00000014
#07417:0000000000000014
#07414:00150000
#07812:14
#0781a:14
#07818:00343434343434343434343434340000
#0771a:0000000000000014
#07715:24
#03015:13130000
#0301b:0013001300000000
#03018:0000000000000013
#02915:0013000000000000
#02918:0013000000000000
#02914:00130000
#02919:0000130000242400
#02913:0000000000242400
#06616:00000014
#0661a:0024
#05115:23
#05118:00230000
#05112:0000002400000000
#05116:0000000000240000
#0511a:0000000000000024
#05514:0000000000000023
#05519:0000000000000023
#05619:0023002400240025
#05612:0000000000000025
#05613:0000002400240000
#05614:0023000000000000
#05610:0000000000000041
#0581a:00240000
#05812:0024000000000000
#05815:0000002400000000
#06812:24
#06818:0024000000000000
#06814:00240000
#06814:00240000
#0681a:0000002400000000
#07012:00240000
#07016:0024
#0701a:00000024
#04015:0024002400000000
#0401a:00240000
#0591a:0000002400000024
#05917:0024000000000000
#05912:00240000
#05915:0024
#06012:0000002400000024
#06015:0024000000000000
#0601a:00240000
#06017:0024
#07915:00230000
#08218:0000005600000000
#08212:0000006600000000
#0025a:14
#0025b:0000000000000053
#00452:1400000000000063
#0095b:0053
#00955:0053
#01052:13
#01058:13
#01055:0000000000000053
#01255:0000005300000000
#01258:00000063
#01655:0000000000000063
#01658:0000000000000053
#01755:0053
#01752:0063000000000000
#01758:0063
#0175b:0053000000000000
#01558:0000000000000063
#01552:00130000
#02252:13
#0225b:0000000000000013
#02455:13
#02458:0000001300000000
#02552:0019
#03258:0014
#03158:0000000000000063
#0315b:0000001300000000
#0345a:0000000000000064
#03656:00250000
#03655:00000000000000650000000000000000
#03652:0000000000000015
#03857:0000006400000000
#0385a:0000000000000014
#04355:0064
#04452:0000006400000000
#04455:0000000000000015
#04558:00000053
#04555:0000000000000063
#0495a:14
#04955:14
#05355:63000000000000000000002400000000
#05352:0000006300000000
#05855:0000006400000000
#05852:0000000000000014
#06455:0000001300000000
#0645a:0000000000000054
#07154:0000000000000014
#07152:14
#07658:0000005300000000
#00358:00000000002300000000000000000000
#00655:0000005300000013
#00652:0000000000530000
#00758:0000005300000000
#01458:0000006300000000
#01455:00000053
#0135b:00130000
#01852:13
#0185b:13
#0185a:0000000000000054
#01952:0064
#02352:0000006300000000
#02652:0000006300000000
#02655:0000000000000063
#03552:0000000000000064
#04052:0000000000000014
#04055:0000006400000000
#0465b:0000005300000000
#04658:0000000000000053
#04652:0000006300000000
#04655:0000000000000063
#0545a:0000000000000014
#05452:14
#0625a:0000000000000014
#06252:0000001400000000
#06355:0000000000000063
#06557:00540000
#06552:0000000000000064
#06958:0000000000000014
#07552:0014
#0755a:0014
#07457:0000000000000064
#07459:0000001500000000
#0735a:0000001300000000
#07352:0000000000000014
#07852:54
#0785a:54
#07855:0000000000000013
#07858:0000000000000013
#07755:54
#0205b:0000000000000053
#03355:0000000000000053
#0305b:0000005300000000
#03058:0000000000000053
#04155:0064
#0415a:0000000000000014
#04257:0054
#04252:0000000000000014
#0525b:0053
#06752:54
#06755:0000001400000000
#0685a:0000005400000000
#06857:00000014
#02752:0000001300000000
#02954:00530000
#02959:00530000
#02955:0023000000000000
#02958:0023000000000000
#05652:0000000000000015
#05659:0000000000000015
#0595a:0000000000000014
#05955:0054
#06052:0000000000000014
#06057:0054
#0725b:0053
#02854:0000000000000053
#02859:0000000000000053
#04758:0000000000000013
#0615a:0000000000000014
#0023b0:0000000000000013
#003380:00000000005300000000000000000000
#0033b0:00000023
#004320:0000000000000013
#005350:00230000
#006350:0000001300000023
#006320:0000000000330000
#007380:0000001300000000
#0073b0:00000023
#0083b0:0000000000000013
#0093b0:0053
#010380:23
#009351:0013
#010321:23
#010351:0000000000000013
#011321:0033230000000000
#012351:0000001300000000
#012321:00000023
#012380:00000013
#0123b0:0000000000000033
#0133b0:0033230000000000
#014380:0000001300000000
#0143b0:00000023
#014351:00000013
#014321:0000000000000033
#015321:0033230000000000
#015381:0000000000000013
#0163b1:0023000000000000
#016351:0000000000000013
#017321:0033000000000000
#017351:0000003333000000
#018321:23
#016380:0000000000000013
#0173b0:0033000000000000
#017380:0000003333000000
#0183b0:23
#0183a0:0000000000000014
#019370:00240000
#019320:0014
#019350:00000024
#0203b0:0000000000000013
#021380:0033230000000000
#023320:0000001300000000
#023350:00000023
#024350:0000000000000013
#025320:0029
#026320:0000001300000000
#026350:0000000000333333
#027320:0033332300000000
#028340:0000000000000013
#029350:0033000023000000
#029340:00330000
#028391:0000000000000013
#029381:0033000023000000
#029391:00330000
#0303b1:0000001300000000
#030381:0000000000333333
#0313b1:0033332300000000
#031381:0000000000000013
#0323b1:0023000000000000
#033351:0000000000000013
#034321:0023000000000000
#0343a1:0000000000000014
#035371:00240000
#035321:0000000000000014
#036361:00550000
#036351:00000000000000550000000000000000
#036321:0000000000000025
#038371:0000001400000000
#0383a1:0000000000000024
#040351:0000001400000000
#040321:0000000000000024
#041351:0014
#041321:00000024
#042371:0014
#0423a1:00000024
#043351:0014
#043321:00000024
#044321:0000001400000000
#044351:0000000000000025
#045381:00000013
#0463b1:0033003300000000
#046381:0000000000333333
#0473b1:00230000
#045350:0000000000000013
#046320:0033003300000000
#046350:0000000000333333
#047320:00230000
#050350:13230000
#0523b0:0013
#052390:00000000000000000000003300000000
#052380:0000000000000023
#053350:13000000000000000000005400000000
#053320:0000333300000000
#054320:24
#058350:0000001400000000
#058320:0000000000000024
#059350:0014
#059320:00000024
#060370:0014
#0603a0:00000024
#063350:0000000000000013
#064320:0023000000000000
#0643a0:0000000000000014
#065370:0034340000000000
#0653a0:0024
#065320:0000000000000014
#066350:00240000
#067320:14
#067350:0000002400000000
#0683a0:0000001400000000
#068370:00000024
#0723b0:0013
#072390:00000000000000000000003300000000
#072380:0000000000000023
#074370:0000000000000014
#0753a0:0024000000000000
#076380:0000001300000000
#0763b0:0000000000230000
#077350:14
#078320:54
#078350:0000000000000023
#0783a1:14
#078381:00343434343434343434343434342300
#079351:00130000
#079321:00000000005400000000000000000000
#082321:0000002600000000
#079380:00130000
#0793a0:00000000005400000000000000000000
#082380:0000002600000000
#0549a0:000000000000000000000000000000000000000000000000000000000000000000000000000000000000000000000000000000000000000000000000000000000000000000000000000000000000000000000000000000000000000000000000000000000000000000000000000000000000000000000000000000000000000000000000000000000000000000000000000000000000000000000000000000000000000000000000000000000000000000000000000000000000000000000000000000000000000000000000000000000000000000000000000000000000000000000000000000000000000000000000000000000000000000000000000000000000000000000000000000000000000000000000000000000000000000000000000000000000000000000000000000000000000000000000000000000000000000000000000000000000000000000000000000000000000000000000000000000000000000000000000000000000000000000000000000000000000000000000000000000000000000000000000000000000000000000000000000000000000000000000000000000000000000000000000000000000000000000000000000000000000000000000000000000000000000000000000000000000000000000000000000000000000000000000000000000000000000000000000000000000000000000000000000000000000000000000000000000000000000000000000000000000000000000000000000000000000000000000000000000000000000000000000000000000000000000000000000000000000000000000000000000000000000000000000000000000000000000000000000000000000000000000000000000000000000000000000000000000000000000000000000000000000000000000000000000000000000000000000000000000000000000000000000000000000000000000000000000000000000000000000000000000000000000000000000000000000000000000000000000000000000000000000000000000000000000000000000000000000000000000000000000000000000000000000000000000000000000000000000000000000000000000000000000000000000000000000000000000000000000000000000000000000000000000000000000000000000000000000000000000000000000000000000000000000000000000000000000000000000000000000000000000000000000000000000000000000000000000000000000000000000000000000000000000000000000000000000000000000000000000140000000000000000000000000000000000000000000000000000000000000000000000000000000000000000000000000000000000000000000000000000000000000000000000000000000000000000000000000000000000000000000000000000000000000000000000000000000000000000000000000000000000000000000000000000000000000000000000000000000000000000000000000000000000000000000000000000000000000000000000000000000000000000000000000000000000000000000000000000000000000000000000000000000000000000000000000000000000000000000000000000000000000000000000000000000000000000000000000000000000000000000000000000000000000000000000000000000000000000000000000000000000000000000000000000000000000000000000000000000000000000000000000000000000000000000000000000000000000000000000000000000000000000000000000000000000000000000000000000000000000000000000000000000000000000000000000000000000000000000000000000000000000000000000000000000000000000000000000000000000000000000000000000000000000000000000000000000000000000000000000000000000000000000000000000000000000000000000000000000000000000000000000000000000000000000000000000000000000000000000000000000000000000000000000000000000000000000000000000000000000000000000000000000000000000000000000000000000000000000000000000000000000000000000000000000000000000000000000000000000000000000000000000000000000000000000000000000000000000000000000000000000000000000000000000000000000000000000000000000000000000000000000000000000000000000000000000000000000000545454240000000000000000000000000000000000000000000000000000000000000000000000000000000000000000000000000000000000000000000000000000000000000000000000000000000000000000000000000000000000000000000000000000000000000000000000000000000000000000000000000000000000000000000000000000000000000000000000000000000000000000000000000000000000000000000000000000000000000000000000000000000000000000000000000000000000000000000000000000000000000000000000000000000000000000000000000000000000000000000000
#054960:000000000000000000000000000000005454000000000000
