This file was generated by Ched 2.7.0.0.
#TITLE ""
#ARTIST ""
#DESIGNER ""
#DIFFICULTY 0
#PLAYLEVEL
#SONGID ""
#WAVE ""
#WAVEOFFSET 0
#JACKET ""
#REQUEST "ticks_per_beat 480"
#00002: 4
#BPM01: 180
#00008: 01
#TIL00: ""
#VOLUME: ""
#HISPEED 00
#MEASUREHS 00
#0261f:11
#0231a:0014
#02314:00140000
#02318:14
#01612:0014
#01618:14
#0721a:00140014
#07212:0014
#0711a:00140000
#07112:00140000
#07118:0000003400000000
#07114:0000003400000000
#07518:00140000
#07512:0024
#0751a:0024
#07018:0014
#0701a:14
#07014:00000024
#07012:00240000
#06918:0014
#06914:00000024
#06912:00240000
#06910:41
#05513:00000000000000000000000025150000
#05512:0000000000000017
#05212:00000014
#05218:0014
#05214:00140000
#0521a:14
#05112:00000014
#05118:0014
#05114:00140000
#0511a:14
#05012:16000014
#05018:0014
#04018:00140000
#04012:14
#0401a:0000003400000024
#03918:00000014
#03914:0014
#0391a:00140000
#03814:00140000
#0381a:14
#03812:0000003400000000
#03714:00000014
#03718:0014
#03712:00140000
#03710:0041
#03118:0000140000001434
#03114:1414
#0301a:0014
#03012:14
#02114:1414
#02118:00140000
#07312:1400000000000015
#07315:0000001400000000
#07415:0000001500000000
#0781a:1454
#07817:0000000000000054
#07818:00540054
#07819:0054005400540000
#07712:1454
#07714:00540054
#07713:0054005400540000
#0761a:00000014
#07612:0014
#07618:00140000
#07614:14
#06816:0000000000150000
#0681a:0000143400000000
#06814:14
#0671a:00000014
#06712:26
#06512:14
#0651a:00000014
#06514:0014
#06518:00140000
#06318:00140000
#0631a:00000014
#06314:0014
#06418:00140000
#0641a:00000014
#06414:0014
#06412:14
#06214:0034003400140000
#06212:0000000000000024
#06112:00000014
#06118:0014
#06114:0000140000000034
#0611a:14
#06018:00140000
#06014:14
#06012:0024
#05914:00140000
#0591a:0024
#0581a:00140000
#05812:14
#05818:0000003400000000
#05718:00000014
#05714:0014
#0571a:00140000
#05613:00150000001500000015000000150000
#05612:0017001700170000
#05610:0000000000000041
#05416:00000016000000000000000000000000
#05418:0000000000000026
#05318:0000001600000000
#05315:0000000000000016
#04918:00000016
#04912:26
#04910:41
#04718:0000000000001434
#04714:0014
#0471a:00140000
#04712:14
#04618:00000014
#04614:0014
#0461a:00140000
#04612:14
#04518:00000014
#04514:0014
#0451a:00140000
#04412:0000003400140026
#04414:00140000
#0441a:14
#04312:00000014
#04318:0014
#04314:00140000
#03616:0000000014000028
#0361f:0000000000000021
#03414:0014
#03418:00140000
#03314:0000343414000000
#03312:14000034
#03313:0034000000340000
#02414:1414
#02418:0000140000002434
#02410:41
#02212:0014
#0221a:14
#0201a:0014
#02012:14
#01918:1414
#01914:00140000
#01812:0014
#0181a:24
#01714:0014
#0171a:14
#01514:0014
#0151a:14
#01412:0014
#01418:14
#01314:0014
#0131a:14
#01214:0014
#0121a:14
#01210:41
#01118:14
#01112:0014
#01012:0014
#00814:0014
#00818:00140000
#00812:14
#00714:00140000
#00718:0014
#0071a:14
#00612:00000014
#00614:00140000
#00618:0014
#0061a:24
#04218:00242400
#04212:0000002400000000
#0411a:0000002400000000
#04114:00242400
#06618:00260026
#06612:2626
#04818:00000026
#04812:0026
#00414:24
#00419:0000000000340000
#0041a:00000034
#00218:24
#00213:0000000000340000
#00214:00000034
#07158:0000000000000014
#07154:0000000000000014
#0715a:00640000
#07152:00540000
#0405a:0000000000000014
#04058:00640000
#03852:0000000000000014
#03854:00540000
#03352:5400000000000014
#03354:0054
#07452:0000000000000016
#07455:0000005500000000
#06958:16
#06252:0000000000000014
#06254:0000000000640000
#05858:0000000000000014
#0585a:00640000
#05652:0067006700670017
#05653:00250000002500000025000000250000
#04452:0000000000240016
#04454:00540000
#04258:0000000000000014
#04154:0000000000000014
#0325a:0014
#02556:0018
#01058:14
#06752:16
#06052:0014
#0595a:0014
#05458:0000000000000016
#05456:00000066000000000000000000000000
#04952:16
#03656:0000000024000018
#0065a:14
#00454:14
#00258:14
#05553:00000000000000000000000000250000
#05552:0000000000000067
#07352:5400000000000055
#07355:0000005400000000
#06856:0000000000250000
#0685a:00640000
#06152:00000064
#05358:0000006600000000
#05355:0000000000000026
#05052:16
#04758:00000054
#03158:00000054
#002320:0014
#002330:0000000000340000
#002340:0000000000003434
#004340:24
#004380:0014
#004390:0000000000340000
#0043a0:0000000000003434
#0053a0:00343400
#0063a0:24
#0083a0:0000000000001434
#0093a0:0034
#010380:24
#024380:0000000000001434
#025360:0028
#026320:14
#026340:0034
#027320:34
#027340:0024
#0283a0:14
#028380:0034
#0293a0:34
#029380:0024
#031380:0000000000001434
#0323a0:00342400
#033320:1400000000003424
#033330:0034000000340000
#033340:0000343434000000
#0343a0:0000000000001434
#0353a0:0000003400000000
#035390:0034
#035380:0000000000340000
#035370:00000034
#035360:0000000000000034
#036360:0000000054000028
#038340:00140000
#038320:0000003400000024
#040380:00140000
#0403a0:0000003400000024
#041340:0000000014000024
#042380:0000000014000024
#044340:00140000
#044320:0000003400540026
#047380:0000000000001434
#0483a0:00240000
#053380:1600363600000000
#053350:0000000000000056
#054360:00000056000000000000000000000000
#054380:0000000000005626
#055330:00000000000000000000000015550055
#055320:0000000000000037
#056330:00550055005500550055005500550000
#056320:0037003700370027
#0583a0:00140000
#058380:0000003400000024
#061320:00000014
#061340:0000000000000034
#062340:0034003400340000
#062320:0000000000000024
#0683a0:0000143400000000
#068360:0000000000550000
#069380:26
#0713a0:14340000
#071380:0000003400340024
#071321:14340000
#071341:0000003400340024
#073321:1400000000000035
#073351:0000003400000000
#074351:0000003500000000
#074321:0000000000000026
#0793a1:00140000
#082381:0000002400000000
#079320:00140000
#082340:0000002400000000
#077920:1454
#077940:000000000000000000000000000000000000000000000000000000000000000000000000000000000000000000000000000000000000000000000000000000000000000000000000000000000000000000000000000000000000000000000000000000000000000000000000000000000000000000000000000000000000000000000000000000000000000000000000000000000000000000000000000000000000000000000000000000000000000000000000000000000000000000000000000000000000000000000000000000000000000000000000000000000000000000000000000000000000000000000000000000000000000000000000000000000000000000000000000000000000000000000000000000000000000000000000000000000000000000000000000000000000000000000000000000000000000000000000000000000000000000000000000000000000000000000000000000000000000000000000000000000000000000000000000000000000000000000000000000000000000000000000000000000000000000000000000000000000000000000000000000000000000000000000000000000000000000000000000000000000000000000000000000000000000000000000000000000000000000000000540000000000000000000000000000000000000000000000000000000000000000000000000000000000000000000000000000000000000000000000000000000000000000000000000000000000000000000000000000000000000000000000000000000000000000000000000000000000000000000000000000000000000000000000000000000000000000000000000000000000000000000000000000000000000000000000000000000000000000000000000000000000000000000000000000000000000000000000000000000000000000000000000000000000000000000000000000000000000000000000000000000000000000000000000000000000000000000000000000000000000000000000000000000000000000000000000000000000000000000000000000000000000000000000000000000000000000000000000000000000000000000000000000000000000000000000000000000000000000000000000000000000000000000000000000000000000000000000000000000000000000000000000000000000000000000000000000000000000000000000000000000000000000000000000000000000000000000000000000000000000000000000000000000000000000000000000000000000000000000000000000000000000000000000000000000000000000000000000000000000000000000000000000000000000000000000000000000000000000000000000000000000000000000000000000000000000000000000000000000000000000000000000000000000000000000000000000000000000000000000000000000000000000000000000000000000000000000000000000000000000000000000000000000000000000000000000000000000000000000000000000000000000000000000000000000000000000000000000000000000000000000000000000000000000000000000000000000000000000000000000000000000000000000000000000000000000000000000000000000000000000000000000000000000000000000000000000000000000000000000000000000000000000000000000000000000000000000000000000000000000000000000000000000000000000000000000000000000000000000000000000000000000000000000000000000000000000000000000000000000000000000000000000000000000000000000000000000000000000000000000000000000000000000000000000000000000000000000000000000000000000000000000000000000000000000000000000000000000000545454240000000000000000000000000000000000000000000000000000000000000000000000000000000000000000000000000000000000000000000000000000000000000000000000000000000000000000000000000000000000000000000000000000000000000000000000000000000000000000000000000000000000000000000000000000000000000000000000000000000000000000000000000000000000000000000000000000000000000000000000000000000000000000000000000000000000000000000000000000000000000000000000000000000000000000000000000000000000000000000000000000000000000000000000000000000000000000000000000000000000000000000000000000000000000000000000000000000000000000000000000000000000000000000000000000000000000000000000000000000000000000000000000000000000000000000000000000000000000000000000000000000000000000000000000000000000000000000000000000000000000000000000000000000000000000000000000000000000000000000000000000000000000000000000000000000000000000000000000000000000000000000000000000000000000000000000000000000000000000000000
#0789a0:1454
#078980:00540000
#078970:000000000000000000000000000000000000000000000000000000000000000000000000000000000000000000000000000000000000000000000000000000000000000000000000000000000000000000000000000000000000000000000000000000000000000000000000000000000000000000000000000000000000000000000000000000000000000000000000000000000000000000000000000000000000000000000000000000000000000000000000000000000000000000000000000000000000000000000000000000000000000000000000000000000000000000000000000000000000000000000000000000000000000000000000000000000000000000000000000000000000000000000000000000000000000000000000000000000000000000000000000000000000000000000000000000000000000000000000000000000000000000000000000000000000000000000000000000000000000000000000000000000000000000000000000000000000000000000000000000000000000000000000000000000000000000000000000000000000000000000000000000000000000000000000000000000000000000000000000000000000000000000000000000000000000000000000000000000000000000000000000000000000000000000000000000000000000000000000000000000000000000000000000000000000000000000000000000000000000000000000000000000000000000000000000000000000000000000000000000000000000000000000000000000000000000000000000000000000000000000000000000000000000000000000000000000000000000000000000000000000000000000000000000000000000000000000000000000000000000000000000000000000000000000000000000000000000000000000000000000000000000000000000000000000000000000000000000000000000000000000000000000000000000000000000000000000000000000000000000000000000000000000000000000000000000000000000000000000000000000000000000000000000000000000000000000000000000000000000000000000000000000000000000000000000000000000000000000000000000000000000000000000000000000000000000000000000000000000000000000000000000000000000000000000000000000000000000000000000000000000000000000000000000000000000000000000000000000000000000000000000000000000000000000000000000000000000000000000000000000000000000000000000000000000000000000000000000000000000000000000000000000000000000000000000000000000000000000000000000000000000000000000000000000000000000000000000000000000000000000000000000000000000000000000000000000000000000000000000000000000000000000000000000000000000000000000000000000000000000000000000000000000000000000000000000000000000000000000000000000000000000000000000000000000000000000000000000000000000000000000000000000000000000000000000000000000000000000000000000000000000000000000000000000000000000000000000000000000000000000000000000000000000000000000000000000000000000000000000000000000000000000000000000000000000000000000000000000000000000000000000000000000000000000000000000000000000000000000000000000000000000000000000000000000000000000000000000000000000000000000000000000000000000000000000000000000000000000000000000000000000000000000000000000000000000000000000000000000000000000000000000000000000000000000000000000000000000000000000000000000000000000000000000000000000000000000000000000000000000000000000000000000000000000000000000000000000000000000000000000000000000000000000000000000000000000000000000000000000000000000000000000000000000000000000000000000000000000000000000000000000000000000000000000000000000000000000000000000000000000000000000000000000000000000000000000000000000000000000000000000000000000000000000000000000000000000000000000000000000000000000000000000000000000000000000000000000000000000000000545454240000000000000000000000000000000000000000000000000000000000000000000000000000000000000000000000000000000000000000000000000000000000000000000000000000000000000000000000000000000000000000000000000000000000000000000000000000000000000000000000000000000000000000000000000000000000000000000000000000000000000000000000000000000000000000000000000000000000000000000000000000000000000000000000000000000000000000000000000000000000000000000000000000000000000000000000000000000000000000000000
