This file was generated by Ched 2.7.0.0.
#TITLE ""
#ARTIST ""
#DESIGNER ""
#DIFFICULTY 0
#PLAYLEVEL
#SONGID ""
#WAVE ""
#WAVEOFFSET 0
#JACKET ""
#REQUEST "ticks_per_beat 480"
#00002: 4
#BPM01: 156
#00008: 01
#TIL00: ""
#VOLUME: ""
#HISPEED 00
#MEASUREHS 00
#0491f:11
#04914:0014
#0491a:24
#07018:1616
#06912:0016
#06918:26
#05312:0014
#05318:14
#05119:0014
#05113:14
#0781a:14
#06812:1616
#06718:0016
#06712:26
#06412:0016
#06418:16
#06312:0016
#06318:16
#06118:0016
#06112:26
#05912:0016
#0591f:21
#05918:26
#05910:0041
#05418:14
#05213:14
#0501a:14
#04114:14
#0411a:24
#03612:14
#07618:14
#0741a:14
#04412:14
#04418:24
#04314:14
#0431a:24
#04212:14
#04218:24
#04012:14
#03918:14
#03910:41
#0371a:14
#03814:14
#03518:14
#03414:14
#01418:14
#01312:14
#0121a:14
#01114:14
#01018:14
#00912:24
#07714:24
#07512:24
#07314:24
#07310:41
#0331a:24
#01514:24
#04810:41
#02910:41
#01710:41
#001340:14
#002340:24
#003380:14
#004380:24
#005330:14
#006330:24
#007390:1400000000000034
#008380:00000026
#015340:1400003400003400
#016340:0034000024000000
#017380:14
#0183a0:34
#0193a0:34
#020380:24
#021340:14
#022320:34
#023320:34
#024340:24
#025380:14
#0263a0:24
#027340:14
#028320:24
#0293a0:14
#030380:24
#031320:14
#032340:24
#045340:14
#046340:24
#0453a1:14
#0463a1:24
#047381:14
#048381:24
#047320:14
#048320:24
#054320:0000000014000034
#055340:0000000000000034
#056320:0000000000000034
#057340:0000000000000034
#058340:0000003400002400
#060380:1626
#062320:1626
#065380:1600000036000036
#066360:0026
#071320:1626
#072380:1626
#079320:1600000000000036
#079330:0000003600000000
#080340:0000000000000036
#084320:24
