This file was generated by Ched 2.7.0.0.
#TITLE ""
#ARTIST ""
#DESIGNER ""
#DIFFICULTY 0
#PLAYLEVEL
#SONGID ""
#WAVE ""
#WAVEOFFSET 0
#JACKET ""
#REQUEST "ticks_per_beat 480"
#00002: 4
#BPM01: 156
#00008: 01
#TIL00: ""
#VOLUME: ""
#HISPEED 00
#MEASUREHS 00
#00518:1414
#00512:00140000
#00613:1414
#00619:00140000
#0071a:1414
#00714:0000140000000034
#0091a:0014
#00912:26
#01014:14
#0101a:0014
#01118:0014
#01112:26
#01212:14
#01218:0014
#0131a:0014
#01312:26
#01414:14
#0141a:0014
#01612:0016
#0181a:14
#01912:14
#0201a:14
#02112:14
#02214:14
#0231a:14
#02418:14
#02614:14
#02612:0014
#02818:0014
#02914:14
#02910:41
#03018:14
#03112:14
#0321a:14
#03318:0014
#03312:24
#03414:14
#0341a:0014
#03514:14
#03518:0014
#03612:14
#03714:0014
#0371a:24
#03818:14
#03812:0014
#03918:14
#03914:0014
#03910:41
#0401a:14
#04112:14
#04116:0024
#0421a:14
#04216:0024
#04312:14
#04316:0024
#0441a:14
#04416:0024
#04712:0000340034000014
#04918:16
#04916:0000003616000000
#0491f:11
#05112:16
#05114:0000003616000000
#05318:16
#05316:0000003616000000
#05518:0000000000000016
#05612:0000000000000016
#05714:00160000
#05914:00140000
#05918:26
#0591f:21
#05912:0000003400000000
#05910:0041
#06012:00140000
#06018:16
#06014:0000003400000000
#06114:00140000
#06118:26
#06112:0000003400000000
#06212:00140000
#06218:16
#06214:0000003400000000
#06314:00140000
#06312:00000014
#06318:0014
#0631a:24
#06418:14
#06412:00140000
#0641a:0014
#06414:00000014
#06714:0014
#06718:00140000
#0671a:00000014
#06712:24
#06818:00140000
#06812:14
#07114:0014
#0711a:00140000
#07112:14
#07312:00140000
#07318:0014
#07314:00000014
#0731a:24
#07310:41
#0741a:14
#07412:00140000
#07418:0014
#07414:00000014
#07514:00140000
#07518:0014
#07512:00000014
#0751a:24
#0761a:14
#07614:00140000
#07618:0014
#07612:00000014
#07918:16
#07916:0000000000000016
#08018:0000001600000000
#00812:00000018
#01512:26
#05412:0000000000000026
#0691a:24
#06918:0024
#06914:00240000
#06912:00000024
#0701a:24
#07014:00240000
#07018:0024
#07218:0000002400000000
#07214:0000000000240000
#07718:26
#07712:00240000
#07716:0024
#0771a:00000024
#0781a:00240000
#07816:0024
#07812:00000024
#07814:24
#04618:00343400
#04514:00343400
#06518:0000000034343400
#04810:41
#01710:41
#00952:16
#01652:0056
#01754:16
#02152:54
#02254:54
#0235a:64
#02458:64
#02654:54
#02652:0024
#02854:14
#02954:54
#03058:64
#03152:54
#0325a:64
#03258:0014
#03654:0014
#03652:54
#0405a:64
#04058:0014
#04752:0000000000000054
#04852:0016
#04956:0026
#04958:56
#05058:0000001600000000
#05152:66
#05154:0026
#05252:0000001600000000
#05358:56
#05356:0026
#05458:0000001600000000
#05452:0000000000000016
#05558:0000000000000016
#05754:00260000
#05652:0000000000000056
#05854:0000001600000000
#05954:00540000
#06052:00640000
#06154:00540000
#06252:00640000
#06656:0018
#07258:0000001400000000
#07254:0000000000140000
#07758:16
#08058:0000002600000000
#07956:0000000000000056
#07958:56
#00852:00000058
#01152:16
#01352:16
#001380:1424
#002340:1424
#0033a0:1424
#004320:1424
#007340:0000000000001434
#008320:00000038
#009320:26
#015320:16000036
#015340:0000003600000000
#016340:0036000000000000
#016320:0036
#017340:26
#021320:14
#021340:0054
#022340:34
#022320:0024
#0233a0:14
#023380:0054
#024380:34
#0243a0:0024
#025320:16
#026340:34
#026320:0054
#027340:34
#027320:0034
#028340:24
#029340:14
#029320:0024
#030380:14
#0303a0:0024
#031320:14
#031340:0024
#0323a0:14
#032380:0024
#036320:14
#036340:0024
#0403a0:14
#040380:0024
#045320:14
#045340:00343424
#0463a0:14
#046380:00343424
#047340:14
#047320:0000340034003434
#048320:0026
#049380:1600000000000036
#049360:0000003656000000
#050360:0036000000000000
#050380:0000002600000000
#051320:1600000000000036
#051340:0000003656000000
#052340:0036000000000000
#052320:0000002600000000
#053380:1600000000000036
#053360:0000003656000000
#054360:0036000000000000
#054380:0000002600000000
#056320:0000000000000016
#057340:00560000
#057320:0000000000363636
#058340:0036362600000000
#059340:00140000
#059320:0000003400002400
#060320:00140000
#060340:0000003400002400
#061340:00140000
#061320:0000003400002400
#062320:00140000
#062340:0000003400002400
#0653a0:1400003400000000
#065380:0000000034343434
#066360:0028
#068340:00001424
#070380:00001424
#071380:0000000000001434
#072380:0034342400000000
#079380:16
#079360:0000003600363636
#080380:0000005600000000
#080360:0000000000000036
#0843a0:24
