This file was generated by Ched 2.7.0.0.
#TITLE ""
#ARTIST ""
#DESIGNER ""
#DIFFICULTY 0
#PLAYLEVEL
#SONGID ""
#WAVE ""
#WAVEOFFSET 0
#JACKET ""
#REQUEST "ticks_per_beat 480"
#00002: 4
#BPM01: 140
#00008: 01
#TIL00: ""
#VOLUME: ""
#HISPEED 00
#MEASUREHS 00
#00119:14
#00213:14
#00319:14
#00310:41
#00413:14
#00918:14
#01018:14
#01010:41
#01114:14
#01214:14
#0131a:14
#0141a:14
#01512:14
#01612:14
#01718:14
#01710:41
#01814:14
#01918:14
#02014:14
#0211a:14
#02214:14
#02318:14
#02412:14
#02410:41
#03312:0016
#03318:26
#0331f:21
#03418:16
#03412:0016
#03410:41
#03712:0016
#03718:26
#03818:16
#03812:0016
#04118:1616
#04212:1616
#04318:16
#04312:0016
#04310:41
#04418:16
#04412:0016
#04512:0016
#04518:26
#04718:0016
#04712:26
#04812:16
#04818:0016
#0251f:11
#04914:00383800
#0053a0:14343434
#0063a0:24
#007320:14343434
#008320:24
#0253a0:14
#0263a0:24
#027340:14
#028340:24
#029380:14
#030380:24
#031320:14
#032320:24
#035380:1626
#036320:1626
#039380:1626
#040320:1626
#046380:1626
#049340:18383800
#049360:00000024
