This file was generated by Ched 2.7.0.0.
#TITLE ""
#ARTIST ""
#DESIGNER ""
#DIFFICULTY 0
#PLAYLEVEL
#SONGID ""
#WAVE ""
#WAVEOFFSET 0
#JACKET ""
#REQUEST "ticks_per_beat 480"
#00002: 4
#BPM01: 140
#00008: 01
#TIL00: "30'720:10000, 31'720:5, 31'780:4, 31'840:3, 31'900:2, 31'960:1"
#VOLUME: ""
#HISPEED 00
#MEASUREHS 00
#00912:14000000140000131300000000000000
#00916:00000014000000141400130000000000
#0091a:1400140000140000
#01016:0000000014140013
#0101b:00000013000000130000000000001300
#01012:13130000
#01015:00130000001300000000000000000000
#01018:0013001300000000
#01010:41
#0111b:00000000000000000000000000130000
#01118:0000000000000013
#01115:00000000000000000000000000000013
#01112:14140000000000140000001400000000
#0111a:00000000141400000014000000000000
#01116:0000000014140000
#0121b:00000000000000000000000000130000
#01218:00140000000000000000000000001300
#01215:00000000000000000000000000000013
#0121a:14140000
#01212:00001400000014000000001400000000
#01214:00000014000000000000000000000000
#01216:00000000001400140000000000000000
#01316:000000000000000000000000000000000000000000000000000000000000000000000000000000000000000000000000000000000000000000000000000000000000000000000000000000000000000000000000000000000000000000000000000000000000000000000000000000000000000000000000000000000000000000000000000000000000000000000000000000000000000000000000000000000000000000000000000000000000000000000000000000000000000000000074000000000000000000000000000000000000000000000000000000000000000000000000000000000000000000000000000000000000000000000000000000000000000000000000000000000000000000000000000000000000000000000000000000000000000000000000000000000000000000000000140000000000000000000000000000000000000000000000000000000000000000000000000000000000000000000000140000000000000000000000000000000000000000000000
#01312:00260000000000141c00000014000000
#0131a:0000000000000014
#01318:26
#01416:00140000140000000000000000000000
#01412:2413002600130000
#0141b:00000000001300000000130000000000
#01418:00000000000000160000001300130000
#01415:0000000000001313
#0141a:00000024000000000000000000000000
#01518:16160000001600001300130000001313
#01512:00160000161600000000000013130000
#01515:00000000000000000013000000000000
#0151b:00000000000000130000001300000000
#01712:14000013000000001600000000130000
#01718:00130000000000000000160000000013
#01715:00001300000000000000001600001300
#0171a:00000000130000140000000000000000
#01717:00000000001300000000000000000000
#01714:0000001300000000
#01710:41
#01916:00001400000014140000000000000000
#01918:0000000000140013
#01915:00000000000000000000000000000013
#0191b:00000000130000000000000000130000
#0191a:0014
#01914:00000000000000000014000000000000
#01912:00000000000000000000001400000000
#0201b:13000000000000001300001300000000
#02019:0000000000000000130000000000000000000000000000000000000000000000130000000000000000000000000000000000000000000000000000000000000000000000000000000000000000000000000000000000000000000000000000000000000000000000000000000000000000000054000000000000000000000000
#02014:00000000000000001300000000000000000000000000000000000000130000000000000000000000000000000000000000000000000000000054000000000000
#02016:000000000000000000000000000000000000000000000000000000000000000000000000000000000000000000000000000000000000000000000000000000000000000000000000130000000000000000000000000000000000000000000000000000000000000000000000000000000000000000000000000000000000000000000000000000000000000000000000000000000000000000000000000000000000000000000000000000000000000000000000000000000000000000000000000000000000000000000000000000000000000000000000000000000000000000000000000000000000000000000000000000000000000000000000000000000000000000000000000000000000000000000000000000000000000000000000000000000000000000000000000000000000000000000000000000000000000000000000000000000000000000000074000000000000000000000000000000000000000000000000000000000000000000000000000000000000000000000000
#02012:0000000000000000000000001300000000000000000013000000000000540000
#02017:00000000001300000000000000000000
#02018:00000000000000000000000000000000000000000000000000000000000000000000000013000000000000000000000000000000000000000054000000000000
#02015:0000000000000000000000000000000000000000000000000000000000000000000000000000000000000000000000000000000000000000000000000000000000000000000000000000000000000000130000000000000000000000000000000000000000000000000000000000000000560000000000000000000000000000
#0201a:0000000000000000000000000000000000000000000000000000000000540000
#02013:0000000000000000000000000000000000000000000000000000000000000000000000000000000000000000000000000000000000000000000000000000000000000000000000000000000000000000000000000000000000000000000000000000000000000000000000000000000000000054000000000000000000000000
#0211b:0013000000000013
#02112:2400241324002400
#02116:00001400000014000000141400001400
#0211a:24242424
#02215:00000000000013000013000000000000
#02218:000000000000000000000000000000000000000000130000000000000000130000000000000000000000000012000000
#02216:000000000000140000140000000000000000000000000000000000000000000000000000000000000000120000001200
#02212:24242424
#0221a:24242424
#02316:00001400000000140000001400001400
#02312:2c00241324002413
#0231b:0013000000130000
#0231a:00242424
#0241b:0000001300000000
#02416:00001414000014000000000000000000
#0241a:24242400
#02412:2400240024282c00
#02410:41
#02614:1200000000000000000000000000000000000000120000000000000000000054
#02616:00001200000000002400000012000054
#02618:0000000000000000120000000000000000000000000000000000000000540000
#0261a:0000001200000014
#0301b:13
#03019:0013000000000000
#03017:00130000
#03016:13
#03012:0000000000000000000000000000000000000000000000000000000000000000000000000000000000000000000000000000000000000000000000000000000000000000000000000000000000000000000000000000000000000000000000001300000000000000000000000000000000000000000000000000000000000000000000000000000000000000000000000000000000000000000000000000000000000000000000000000000000000000000000000000000000000000000000000000000000000000000000000000000000000000000000000000000000000000000000000000000000000000000000765c00000000000000000000000000000000000000000000000000000000000000000000000000000000000000000000000000000000000000000000000000000000000000000000005c7600000000000000000000000000000000000000000000000000000000000000000000000000000000000000000000000000000000000000000000000000000000000000000076
#03018:000000000000000000000000000000000000000000000000000000000000000000000000000000000000000000000000000000000000000000000000000000000000000000000000000000000000000000000000000000000000000000000000000000000000000000000000000000000000000000000000000000000000000000000000000000000000000000000000007600000000000000000000000000000000000000000000000000000000000000000000000000000000000000000000000000000000000000000000000000000000000000000000000000000000000000000000000000000000000000000000007600000000000000000000000000000000000000000000000000000000000000000000000000000000000000000000000000000000000000000000000000000000000000000076000000000000000000000000000000000000000000000000000000000000000000000000000000000000000000000000000000000000000000000000000000000000000000000000
#03316:0014001400000014
#03314:0000000024140000
#03318:00000000240000000000001424000000
#03312:00240024
#0331a:0024
#0331f:21
#0341a:2400000024000014
#03416:00001400000014000000000000000054
#03414:2400000024140000
#03418:0000000000000000240000000000000000000000000014002400000000540054
#03412:00240024
#03410:41
#03515:001400000000001400000000
#03517:001400001400
#03519:00140014
#03514:000000001400000000240000
#03516:000000000014000000001400
#03518:000000000000140000000014
#03513:2424
#03512:00240000
#0351a:54
#03618:001400000000
#03616:0000001400140014
#0361a:14242424
#03614:000000000014000000000000000000000000000000000000
#03612:24002424
#04014:0013000000000000
#04017:00000013000000000000000000001300
#04015:0000001300000000
#04018:00000000000000130000000000000000
#04016:0000000000130000
#04019:00000000000000000000001300000000
#0401a:24000000000000000000000000000013
#04012:1426292c
#04012:24
#04116:00001400000000140000001400001400
#04118:0000260000162600
#04112:2c00001626000000
#04114:00140000
#04318:00140000000000000000000000000000
#04312:2614261426142614
#0431a:00000014000000140000001400000000
#04317:00000000001400000000000000000000
#04316:00000000000000000014000000000000
#04315:00000000000000000000000000140000
#04310:41
#04812:241c0000241c00002300000000000000
#04814:0000000000130000
#04819:0000000000130000
#0481a:24240000
#04817:0023
#0481b:00000023
#04816:00000023
#04715:001313001313
#04718:001300000013001300000013
#04712:54242424
#0471a:24242424
#00516:0014001300001400
#00513:00130000
#00512:2414
#0051a:24242424
#00612:24141414
#00615:0000001300000000
#00616:0000000000130000
#00617:0000000000000013
#0061a:24242424
#01815:00130000000000000000001600001200
#01818:000000130000000000000000160000000000000000001200
#01816:000000000000000000000000000000130000000000000000000000000000000000000000000000000000000000001200
#0181a:14
#0181b:00000013000000000000000000000000
#01813:00130000
#01819:0000001300000000
#01812:00000000000000140000160000000000
#0271a:000000000000540000540000000014000000000000000000
#02716:000000000000540000000000000000000000000000000000000000000000000014000000000000000000000000540000
#02712:5400001400001414
#02714:0000000000000000000000000000000000000000000000000000000000540000
#02718:0000000000000000000000000000000000000000000000000000000000000054
#0011c:12121212
#00112:13130013
#00116:0013000013000000
#00114:0000001300000000
#00212:0000001313000000
#00216:00000013
#0021c:12121212
#0021b:0000000000120012
#0031c:12
#00312:00121212
#0031b:00130013
#00319:0000001300000000
#00317:0013
#00310:41
#0041b:0000001313000000
#00417:00000013
#00412:12121212
#00413:0000000000120012
#00716:0014000000001400
#00717:0000001300000000
#0071a:24131400
#00712:24242424
#01615:13130000005300000053000000000000
#0161b:00001313000000530000005300000000
#01612:00131300
#01618:0000005300530000
#0251a:1200000000120000
#02518:0012000000001200
#02516:0000120024000012
#02514:0000001200000000
#0251f:11
#02816:000000000000000000000000000000000000000000000000000000000000000000000000000000000000000000000000140000000000000000000000000000000000000000000000000000000000000000000000000000000000000000000000000000000000000000000000000000000000000000000000140000000000000000000000000000000000000000000000000000000000000000000000000000000000000000000000000000000000000000000000000000000000000000000000000000000000000000000000000000000000000000000000000000000000000000000000000000000000000000000000000000000000000000000000000000000000000000000000000000000000000000000000000000000000000000000074007400000000000000000000000000000000000000000000000000000000000000000000000000000000000000000000000000000000000000000000000000000000000000000000000000000000000000000000000000000000000000000000
#0281a:540000000000000000000000000000000000000000000000000000000000000000000000000000000000000000000000000000000000000000000000000000000000000000000000000000000000000000000000000000000000000000000000140000000000000000000000000000000000000000000000000000000000000000000000000000000000000000000000000000000000000000000000000000000000000000000000000000000000000000000000000000000000000000000000000000000000000000000000000000000000000000000000000000000000000000000000000000000000000000000000240000000000000000000000000000000000000000000000000000000000000000000000000000000000000000000084000000000000000000000000000000000000000000000000000000000000000000000000000000000000000000000000000000000000000000000000000000000000000000000000000000000000000000000000000000000000000000000000
#02812:0000000000000000000000000000000000000000000000000000000000000000000000000000000000000000000000000000000000000000000000000000000000000000000000000000000000000000000000000000000000000000000000000000000000000000000000000000000000000000000000000000000000000000000000000000000000000000000000001400000000000000000000000000000000000000000000000000000000000000000000000000000000000000000000000000000000000000000000000000000000000000000000000000000000000000000000000000000000000000000000000000000000000000000000000000000000000000000000000000000000000000000000000000000000000000000000005c8400000000000000000000000000000000000000000000000000000000000000000000000000000000000000000000000000000000000000000000000000000000000000000000000000000000000000000000000000000000000000000000
#0321a:0000000014000000000000000000000000000000000000000064000000000000
#03216:000000000000000000000000000000000000000000000000000000000000000000000000000000000000000000000000000000000000000000000000000000000000000000000000000000000000000000000000000000000000000000000000000000000000000000000000000000000000000000000000000000000000000000000000000000000000000000000000000000000000000000000000000000000000000000000000000000000000000000000000000000000000000000000000240000000000000000000000000000000000000000000000000000000000000000000000000000000000000000000000000000000000000000000000000000000000000000000000000000000000000000000000000000000000000000000074640000000000000000000000000000000000000000000000000000000000000000000000000000000000000000000000000000000000000000000000000000000000000000000000000000000000000000000000000000000000000000000000
#03212:5c00000000000000000000000000000000000000000000000064000000000000
#03214:00000000000000000000000000000000000000000000000000000000000000000000000000000000000000000000000000680000000000000000000000000000
#0291b:00130000
#02916:00130000
#02919:0000001300000000
#02917:00001313
#02912:00001313
#02914:0000000000000013
#03716:0014001400000014
#03718:0000000024140000
#03714:00000000240000000000001424000000
#0371a:24240024
#03712:0024
#03812:2400000024000014
#03816:00001400000014000000000000000054
#03818:2400000024140000
#03814:0000000000000000240000000000000000000000000014002400000000540054
#0381a:00240024
#03917:001400000000001400000000
#03915:001400001400
#03913:00140014
#03918:000000001400000000240000
#03916:000000000014000000001400
#03914:000000000000140000000014
#03919:2424
#0391a:00240000
#03912:54
#04216:00001400000000140000001400140000
#04218:1400260000162616
#04212:2600001626000000
#04214:00140000
#04514:0013001300000000
#04518:0000000000140000
#04515:00000000000000000000001400000000
#04516:0000000000000014
#04519:0013001300000000
#0451a:00242424
#04512:00242424
#04612:2400240024002414
#04618:0000000000140000
#04615:00000000000000000000001400000000
#04614:0000000013000000000000001300000000000000000000000000000000540054
#04619:0013001300000000
#0461a:24242424
#04616:00000000000000000000000000000054
#0441a:1400000000000014
#04412:2400000000000014
#00812:2400002424000000
#0081a:2400002424000000
#00816:000000000000000000000000000000000000000000000000000000000000000000000000000000000000000000000000000000000000000000000000000000000000000000000000000000000000000000000000000000000000000000000000000000000000000000000000000000000000000000000000000000000000000000000000000000000000000000000000000000000000000000000000000000000000000000000000000000000000000000000000000000000000000000000000000000000000000000000000000000000000000000000000000000000000000000000000000000000000000000000000000000000000000000000000000000000000000000000000000000000000000000000000000000000000000000000074000000000000000000000000000000000000000000000000000000000000000000000000000000000000000000000000000000000000000000000000000000000000000000000000000000000000000000000000000000000000000000000000
#04916:54540000
#04913:00520000000000000000000000000000
#0491b:00000000005200000000000000000000
#04915:0054
#04912:00000000000000000052000000000000
#04917:00000054
#0491c:00000000000000000000000000520000
#03112:5c00000000000000000000000000000000000000000000000000000000000000000000000000000000000000000000000000000000000000000000000000000000000000000000005c76000000000000000000000000000000000000000000000000000000000000000000000000000000000000000000000000000000000000000000000000000000000000000000765c00000000000000000000000000000000000000000000005c00000000000000000000000000000000000000000000005c00000000000000000000000000000000000000000000005c00000000000000000000000000000000000000000000005c00000000000000000000000000000000000000000000005c00000000000000000000000000000000000000000000005c00000000000000000000000000000000000000000000005c00000000000000000000000000000000000000000000005c00000000000000000000000000000000000000000000005c0000000000000000000000000000000000000000000000
#03118:007600000000000000000000000000000000000000000000000000000000000000000000000000000000000000000000000000000000000000000000000000000000000000000076000000000000000000000000000000000000000000000000000000000000000000000000000000000000000000000000000000000000000000000000000000000000000000000000000000000000000000000000000000000000000000000000000000000000000000000000000000000000000000000000000000000000000000000000000000000000000000000000000000000000000000000000000000000000000000000000000000000000000000000000000000000000000000000000000000000000000000000000000000000000000000000000000000000000000000000000000000000000000000000000000000000000000000000000000000000000000000000000000000000000000000000000000000000000000000000000000000000000000000000000000000000000000000000000
#0055a:14141414
#00552:0054
#00556:00000054
#0065a:14141414
#00652:14
#00852:1454
#0085a:1464
#00856:00000014
#00952:00145300
#00956:0000000054530000
#0095a:0000000000540000
#01256:00000000000000000000001400000000
#01252:00000000000000000000001400000000
#01552:00360000000000000000000000000000
#01558:00000000004600000000000000000000
#01752:0036
#01755:00000000000000000000003600000000
#02056:0000000000000014
#0205b:00000000000000000000005300000000
#02052:00000000000000000000005300000000
#00156:0053
#00152:00000053
#00256:13000053
#00252:0053
#00357:0063
#0035b:00000063
#00352:13
#0045b:0063
#00457:13000063
#0075a:0064
#00756:00000064
#00752:14141414
#01056:0000000054140000
#01052:0000000000140000
#0105b:0000000000000053
#01352:00000000000000245c00000000000000
#01452:3400003600000000
#0145a:00000044000000000000000000000000
#01458:00000000000000460000000000000000
#01855:00000000000000000000004600000000
#01858:0046
#01952:00000000000000000000001400000000
#02352:4c
#02452:0000000034383c00
#02752:5400006400000000
#02756:0054000000000000
#0285a:14
#02856:0014000000000000
#02952:14
#02956:14
#02957:0013
#03056:13
#03252:1c
#03352:34140014
#0335a:4414
#0345a:1414
#03452:00140014
#0355a:44
#03559:00440044
#03558:0044
#0365a:44440044
#03652:34003454
#03656:0000000000000024
#03752:3414
#0375a:44140014
#03953:00340034
#03954:0034
#03952:34
#04052:3436393c
#0405a:44
#03852:1414
#0385a:00140014
#04152:3c36
#04158:00460046
#04252:3636
#04258:00460046
#04352:36363636
#0455a:44140014
#04552:3414
#04652:1414
#0465a:00140014
#04752:34
#04852:001c0000001c00001300000000000000
#04857:0013
#04859:0000000000130000
#0485b:00000013
#04854:0000000000130000
#04856:00000013
#0445a:5400000000000024
#04452:5400000000000024
#0165b:00000000000000000000001300000000
#001360:0013
#001320:00000033
#002360:23
#002320:0013
#002360:00000033
#003320:23
#003370:0013
#0033b0:00000033
#004370:23
#0043b0:0013
#004370:00000033
#0053a0:24
#005320:0014
#005360:00000034
#006320:24
#0073a0:0014
#007360:00000034
#0083a0:24
#008320:0014
#008360:00000024
#0083a1:0014
#008361:000000000000000000000000000000000000000000000000000000000000000000000000000000000000000000000000000000000000000000000000000000000000000000000000000000000000000000000000000000000000000000000000000000000000000000000000000000000000000000000000000000000000000000000000000000000000000000000000000000000000000000000000000000000000000000000000000000000000000000000000000000000000000000000000000000000000000000000000000000000000000000000000000000000000000000000000000000000000000000000000000000000000000000000000000000000000000000000000000000000000000000000000000000000000000000000024000000000000000000000000000000000000000000000000000000000000000000000000000000000000000000000000000000000000000000000000000000000000000000000000000000000000000000000000000000000000000000000000
#009320:0000000013000023
#009360:0000000000330000
#009361:0000000014000024
#0093a1:0000000000340000
#010361:0014
#010321:0000000000240000
#0103b1:0000000000000013
#011371:23
#0123a1:0014
#012361:00000000000000000034002400000000
#013361:000000000000000000000000000000000000000000000000000000000000000000000000000000000000000000000000000000000000000000000000000000000000000000000000000000000000000000000000000000000000000000000000140000000000000000000000000000000000000000000000000000000000000000000000000000000000000000000000000000000000000000000000000000000000000000000000000000000000000000000000000000000000000000000024000000000000000000000000000000000000000000000000000000000000000000000000000000000000000000000000000000000000000000000000000000000000000000000000000000000000000000000000000000000000000000000000000000000000000000000000000000000000000000000000000000000000000000000000000000000000000000000000000000000000000000000000000000000000000000000000000000000000000000000000000000000000000000000000
#013320:00000000140000543c00000000000000
#0133a0:00000000000000000054000024000000
#0193a0:1424000000000000
#019320:0000142400000000
#0203b0:00000000000000000000001300000000
#020360:0000000000000024
#020321:00000000000000000000001300000000
#020361:000000000000000000000000000000000000000000000000000000000000000000000000000000000000000000000000000000000000000000000000000000000000000000000000000000000000000000000000000000000000000000000000000000000000000000000000000000000000000000000000000000000000000000000000000000000000000000000000000000000000000000000000000000000000000000000000000000000000000000000000000000000000000000000000000000000000000000000000000000000000000000000000000000000000000000000000000000000000000000000000000000000000000000000000000000000000000000000000000000000000000000000000000000000000000000000000000000000000000000000000000000000000000000000000000000000000000000000000000000000000000000000024000000000000000000000000000000000000000000000000000000000000000000000000000000000000000000000000
#027320:0000001400000000
#027360:000000000000002400000000
#028360:000000000000000000000000000000000000000000000000000000000000000000000000000000000000000000000000000000000000000000000000000000000000000000000000000000000000000000000000000000000000000000000000000000000000000000000000000000000000000000000000000000000000000000000000000000000000000000000000000000000000000000000000000000000000000000000000000000000000000000000000000000000000000000000000000000000000000000000000000000000000000000000000000000000000000000000000000000000000000000000000140000000000000000000000000000000000000000000000000000000000000000000000000000000000000000000024000000000000000000000000000000000000000000000000000000000000000000000000000000000000000000000000000000000000000000000000000000000000000000000000000000000000000000000000000000000000000000000000
#0283a1:000000000000000000000000000000000000000000000000000000000000000000000000000000000000000000000000000000000000000000000000000000000000000000000000000000000000000000000000000000000000000000000000000000000000000000000000000000000000000000000000000000000000000000000000000000000000000000000000000000000000000000000000000000000000000000000000000000000000000000000000000000000000000000000000000000000000000000000000000000000000000000000000000000000000000000000000000000000000000000000000140000000000540000000000540000000000540000000000540000000000540000000000540000000000540000000024000000000000000000000000000000000000000000000000000000000000000000000000000000000000000000000000000000000000000000000000000000000000000000000000000000000000000000000000000000000000000000000000
#028391:0000000000000000000000000000000000000000000000000000000000000000000000000000000000000000000000000000000000000000000000000000000000000000000000000000000000000000005400540054005400540054005400540000000000000000000000000000000000000000000000000000000000000000
#028321:000000000000000000000000000000000000000000000000000000000000000000000000000000000000000000000000000000000000000000000000000000000000000000000000000000000000000000000000000000000000000000000000000000000000000000000000000000000000000000000000000000000000000000000000000000000000000000000000000000000000000000000000000000000000000000000000000000000000000000000000000000000000000000000000000000000000000000000000000000000000000000000000000000000000000000000000000000000000000000000000000000000000000000000000000000000000000000000000000000000000000000000000000000000000000000000000001400000000540000000000540000000000540000000000540000000000540000000000540000000000540000000000540000000000000000000000000000000000000000000000000000000000000000000000000000000000000000000000
#028331:0000000000000000000000000000000000000000000000000000000000000000000000000000000000000000000000000000000000000000000000000000000000000000000000000000000000000000000000000000000000000000000000000054005400540054005400540054005400000000000000000000000000000000
#029321:24
#028360:000000000000000000000000000000000000000000000000000000000000000000000000000000000000000000000000000000000000000000000000000000000000000000000000000000000000000000000000000000000000000000000000000000000000000000000000000000000000000000000000000000000000000000000000000000000000000000000000000000000000000000000000000000000000000000000000000000000000000000000000000000000000000000000000000000000000000000000000000000000000000000000000000000000000000000000000000000000000000000000000000000000000000000000000000000000000000000000000000000000000000000000000000000000000000000000000001400000000000000000000000000000000000000000000000000000000000000000000000000000000000000000000000000000000000000000000000000000000000000000000000000000000000000000000000000000000000000000000
#029360:24
#030320:000000000000000000000000000000000000000000000000000000000000000000000000000000000000000000000000000000000000000000000000000000000000000000000000000000000000000000000000000000000000000000000000000000000000000000000000000000000000000000000000000000000000000000000000000000000000000000000000160000000000000000000000000000000000000000000000000000000000000000000000000000000000000000000000000000000000000000000000000000000000000000000000000000000000000000000000000000000000000000000026000000000000000000000000000000000000000000000000000000000000000000000000000000000000000000000000000000000000000000000000000000000000000000000000000000000000000000000000000000000000000000000000000000000000000000000000000000000000000000000000000000000000000000000000000000000000000000000000
#030381:000000000000000000000000000000000000000000000000000000000000000000000000000000000000000000000000000000000000000000000000000000000000000000000000000000000000000000000000000000000000000000000000000000000000000000000000000000000000000000000000000000000000000000000000000000000000000000000000162600000000000000000000000000000000000000000000000000000000000000000000000000000000000000000000000000000000000000000000000000000000000000000000000000000000000000000000000000000000000000000000000000000000000000000000000000000000000000000000000000000000000000000000000000000000000000000000000000000000000000000000000000000000000000000000000000000000000000000000000000000000000000000000000000000000000000000000000000000000000000000000000000000000000000000000000000000000000000000000
#030380:000000000000000000000000000000000000000000000000000000000000000000000000000000000000000000000000000000000000000000000000000000000000000000000000000000000000000000000000000000000000000000000000000000000000000000000000000000000000000000000000000000000000000000000000000000000000000000000000000000000000000000000000000000000000000000000000000000000000000000000000000000000000000000000000000000000000000000000000000000000000000000000000000000000000000000000000000000000000000000000000001600000000000000000000000000000000000000000000000000000000000000000000000000000000000000000000000000000000000000000000000000000000000000000026000000000000000000000000000000000000000000000000000000000000000000000000000000000000000000000000000000000000000000000000000000000000000000000000
#030320:000000000000000000000000000000000000000000000000000000000000000000000000000000000000000000000000000000000000000000000000000000000000000000000000000000000000000000000000000000000000000000000000000000000000000000000000000000000000000000000000000000000000000000000000000000000000000000000000000000000000000000000000000000000000000000000000000000000000000000000000000000000000000000000000000000000000000000000000000000000000000000000000000000000000000000000000000000000000000000000000000000000000000000000000000000000000000000000000000000000000000000000000000000000000000000000000000000000000000000000000000000000000000000000000001600000000000000000000000000000000000000000000000000000000000000000000000000000000000000000000000000000000000000000000000000000000000000000026
#031380:001600000000000000000000000000000000000000000000000000000000000000000000000000000000000000000000000000000000000000000000000000000000000000000026000000000000000000000000000000000000000000000000000000000000000000000000000000000000000000000000000000000000000000000000000000000000000000000000000000000000000000000000000000000000000000000000000000000000000000000000000000000000000000000000000000000000000000000000000000000000000000000000000000000000000000000000000000000000000000000000000000000000000000000000000000000000000000000000000000000000000000000000000000000000000000000000000000000000000000000000000000000000000000000000000000000000000000000000000000000000000000000000000000000000000000000000000000000000000000000000000000000000000000000000000000000000000000000000
#031320:000000000000000000000000000000000000000000000000000000000000000000000000000000000000000000000000000000000000000000000000000000000000000000000000001600000000000000000000000000000000000000000000000000000000000000000000000000000000000000000000000000000000000000000000000000000000000000000026000000000000000000000000000000000000000000000000000000000000000000000000000000000000000000000000000000000000000000000000000000000000000000000000000000000000000000000000000000000000000000000000000000000000000000000000000000000000000000000000000000000000000000000000000000000000000000000000000000000000000000000000000000000000000000000000000000000000000000000000000000000000000000000000000000000000000000000000000000000000000000000000000000000000000000000000000000000000000000000000
#032360:0014000000000000
#032320:00000054240000000000000000000000
#032361:00140000
#0323a1:00000000005424000000000000000000
#032360:0000001400000000
#032320:00000000000000542400000000000000
#032361:000000000000000000000000000000000000000000000000000000000000000000000000000000000000000000000000000000000000000000000000000000000000000000000000000000000000000000000000000000000000000000000000000000000000000000000000000000000000000000000000000000000000000000000000000000000000000000000000000000000000000000000000000000000000000000000000000000000000000000000000000000000000000000000000140000000000000000000000000000000000000000000000000000000000000000000000000000000000000000000000000000000000000000000000000000000000000000000000000000000000000000000000000000000000000000000024000000000000000000000000000000000000000000000000000000000000000000000000000000000000000000000000000000000000000000000000000000000000000000000000000000000000000000000000000000000000000000000000
#0323a1:0000000000000000000000000000000000000000000000000014000000000000
#0333a1:24
#032320:0000000000000000000000000000000000000000000000000014000000000000
#033320:24
#036320:00000014
#036360:0000000000000054
#037320:24
#0443a0:14
#044320:0000000034000000345454545400000034545454540000003454545434000000
#044330:00000000000000000000000000000000005400540054005400000000000000000054005400540054000000000000000000540054005400540000000000000000
#0453a0:24
#044321:14
#0443a1:0000000034545454540000003454545454000000345454545400000034000000
#044391:00000000000000000054005400540054000000000000000000540054005400540000000000000000005400540054005400000000000000000000000000000000
#045321:24
#016920:00130000
#0169b0:00000000000000230000000000000000
#016920:0013
#0169b0:00000000000000000000002300000000
#0269a0:0000000000000014
#027920:54
#027960:0054000000000000
#0279a0:0000542400000000
#027920:0000000000000014
#0289a0:24
#030980:000000000000000000000000000000000000000000000000000000000000000000000000000000000000000000000000000000000000000000000000000000000000000000000000000000000000000000000000000000000000000000000000000000000000000000000000000000000000000000000000000000000000000000000000000000000000000000000000001600000000000000000000000000000000000000000000000000000000000000000000000000000000000000000000000000000000000000000000000000000000000000000056565656000000000000000000000000000000000000000026000000000000000000000000000000000000000000000000000000000000000000000000000000000000000000000000000000000000000000000000000000000000000000000000000000000000000000000000000000000000000000000000000000000000000000000000000000000000000000000000000000000000000000000000000000000000000000000000
#030920:000000000000000000000000000000000000000000000000000000000000000000000000000000000000000000000000000000000000000000000000000000000000000000000000000000000000000000000000000000000000000000000000000000000000000000000000000000000000000000000000000000000000000000000000000000000000000000000000000000000000000000000000000000000000000000000000000000000000000000000000000000000000000000000000000000000000000000000000000000000000000000000000000000000000000000000000000000000000000000000000001600000000000000000000000000000000000000000000000000000000000000000000000000000000000000000000560000000000000000000000000000000000000000000026000000000000000000000000000000000000000000000000000000000000000000000000000000000000000000000000000000000000000000000000000000000000000000000000
#030980:000000000000000000000000000000000000000000000000000000000000000000000000000000000000000000000000000000000000000000000000000000000000000000000000000000000000000000000000000000000000000000000000000000000000000000000000000000000000000000000000000000000000000000000000000000000000000000000000000000000000000000000000000000000000000000000000000000000000000000000000000000000000000000000000000000000000000000000000000000000000000000000000000000000000000000000000000000000000000000000000000000000000000000000000000000000000000000000000000000000000000000000000000000000000000000000000000000000000000000000000000000000000000000000000001600000000000000000000000000000000000000000000000000000000000000000000000000000000000000000000560000000000000000000000000000000000000000000026
#031920:001600000000000000000000000000000000000000000000000000000000000000000000000000000000000000000000560000000000000000000000000000000000000000000026000000000000000000000000000000000000000000000000000000000000000000000000000000000000000000000000000000000000000000000000000000000000000000000000000000000000000000000000000000000000000000000000000000000000000000000000000000000000000000000000000000000000000000000000000000000000000000000000000000000000000000000000000000000000000000000000000000000000000000000000000000000000000000000000000000000000000000000000000000000000000000000000000000000000000000000000000000000000000000000000000000000000000000000000000000000000000000000000000000000000000000000000000000000000000000000000000000000000000000000000000000000000000000000000
#031980:000000000000000000000000000000000000000000000000000000000000000000000000000000000000000000000000000000000000000000000000000000000000000000000000001600000000000000000000000000000000000000000000000000000000000000000000000000000000000000000000560000000000000000000000000000000000000000000026000000000000000000000000000000000000000000000000000000000000000000000000000000000000000000000000000000000000000000000000000000000000000000000000000000000000000000000000000000000000000000000000000000000000000000000000000000000000000000000000000000000000000000000000000000000000000000000000000000000000000000000000000000000000000000000000000000000000000000000000000000000000000000000000000000000000000000000000000000000000000000000000000000000000000000000000000000000000000000000000
#031920:0000001c00000000
#032920:2c
#0349a0:0000000000000014
#034960:00000000000000000000000000000054
#0359a0:24
#038920:0000000000000014
#038960:00000000000000000000000000000054
#039920:24
#046920:0000000000000014
#046960:00000000000000000000000000000054
#047920:24
#049960:14
#049930:00220000000000000000000000000000
#049960:00140000
#0499b0:00000000002200000000000000000000
#049950:0014
#049920:00000000000000000022000000000000
#049970:00000014
#0499c0:00000000000000000000000000220000
