This file was generated by Ched 2.7.0.0.
#TITLE ""
#ARTIST ""
#DESIGNER ""
#DIFFICULTY 0
#PLAYLEVEL
#SONGID ""
#WAVE ""
#WAVEOFFSET 0
#JACKET ""
#REQUEST "ticks_per_beat 480"
#00002: 4
#BPM01: 140
#00008: 01
#TIL00: ""
#VOLUME: ""
#HISPEED 00
#MEASUREHS 00
#0011a:1414
#00114:00140014
#0021a:14
#00218:0014
#00219:00340034
#00312:00140014
#00318:0014
#00310:41
#00418:14
#0041a:0014
#00419:00340034
#00514:00140014
#0051a:0014
#0061a:14
#00618:0014
#00619:00340034
#00712:00140014
#00718:0014
#00912:14
#01018:14
#01014:00140000
#0101a:0014
#01010:41
#01114:14
#01118:00140000
#01112:0014
#01218:14
#01214:00140000
#0121a:0014
#01314:1414
#01318:00140000
#0141a:14
#01418:0014
#01414:00140000
#01412:00000014
#0161a:14
#01614:00140000
#01618:0014
#01612:00000014
#0171a:14
#01719:00140000
#01718:0014
#01717:00000014
#01710:41
#01812:14
#01813:00140000
#01814:0014
#01815:00000014
#0191a:14
#01914:00140000
#01918:0014
#01912:00000014
#0211a:1414
#02114:00140014
#0221a:14
#02214:00140000
#02312:1414
#02318:00140014
#02412:14
#02418:00140000
#02410:41
#0251a:14
#0251f:11
#02612:14
#02718:14
#02814:14
#0291a:14
#03012:14
#03118:14
#0311a:0000340034340000
#03318:00140000
#03314:0014
#0331a:00000014
#03312:24
#0331f:21
#03414:1414
#0341a:00140000
#03418:00000014
#03410:41
#03516:00140014
#03512:24
#0351a:0024
#03612:14
#03618:0014
#03714:00140000
#03718:0014
#03712:00000014
#0371a:24
#03818:1414
#03812:00140000
#03814:00000014
#03916:00140014
#0391a:24
#03912:0024
#0401a:14
#04014:0014
#04118:00140000
#04114:0014
#0411a:00000014
#04112:24
#04218:00140000
#04214:0014
#0421a:00000014
#04212:24
#04514:00140000
#04518:0014
#04512:00000014
#04614:00140000
#04618:0014
#04612:00000014
#0461a:24
#04912:13
#04915:00130000
#04918:0013
#0491b:00000013
#00818:24000024
#00814:0024
#04814:24
#04818:00240000
#04812:0024
#0481a:00000024
#04418:24343434
#04312:24343400
#04310:41
#0471a:24343400
#0025a:54
#00258:0054
#00458:64
#0045a:0064
#0065a:54
#00658:0054
#0075a:14
#00952:54
#01358:00140000
#01354:0014
#0225a:00000014
#02452:00000014
#0255a:54
#02652:64
#02758:64
#02854:54
#0295a:54
#03052:64
#03158:54
#03352:14
#03652:54
#03658:0054
#0405a:64
#04054:0064
#0375a:14
#04152:14
#04252:14
#0465a:14
#04854:14
#04858:00140000
#04852:0014
#0485a:00000014
#0455a:14
#04458:54
#04352:54
#0475a:54
#0023a0:14
#002390:00340034
#002380:0034
#0033a0:24
#004380:14
#004390:00340034
#0043a0:0034
#005380:24
#0063a0:14
#006390:00340034
#006380:0034
#0073a0:24
#009320:14
#009340:0024
#0153a0:14
#015380:00240000
#015340:0014
#015320:00000024
#020380:14
#0203a0:00240000
#020320:0014
#020340:00000024
#0223a0:00001424
#024320:00001424
#0253a0:14
#025380:0024
#026320:14
#026340:0024
#027380:14
#0273a0:0024
#028340:14
#028320:0024
#0293a0:14
#029380:0024
#030320:14
#030340:0024
#031380:14
#0313a0:0000340034343434
#0323a0:24
#036320:14
#036340:00240000
#036380:0014
#0363a0:00000024
#0403a0:14
#040380:00240000
#040340:0014
#040320:00000024
#043320:14343400
#043340:00000024
#044380:14343434
#0453a0:24
#0473a0:14343400
#047380:00000024
