This file was generated by Ched 2.7.0.0.
#TITLE ""
#ARTIST ""
#DESIGNER ""
#DIFFICULTY 0
#PLAYLEVEL
#SONGID ""
#WAVE ""
#WAVEOFFSET 0
#JACKET ""
#REQUEST "ticks_per_beat 480"
#00002: 4
#BPM01: 122
#00008: 01
#TIL00: ""
#VOLUME: ""
#HISPEED 00
#MEASUREHS 00
#0051a:14
#00510:41
#00612:14
#0071a:14
#00812:14
#01318:16
#00218:14
#00314:14
#00414:14
#00918:14
#01014:14
#01010:41
#01118:14
#01214:14
#01412:16
#01518:16
#01612:16
#01610:41
#02118:14
#02110:41
#02312:00000018
#02214:00000014
#0221f:11
#0261a:14
#0271a:14
#02812:14
#02912:14
#03112:1616
#03110:41
#03218:16
#03212:0016
#03018:2616
#0301f:21
#03518:1616
#03612:16
#03618:0016
#03412:2616
#03818:1414
#03914:1414
#0401a:1414
#04112:1414
#04110:41
#04218:14
#04214:0014
#0431a:14
#04312:0014
#04418:14
#04414:0014
#00118:24
#02352:00000058
#02254:00000054
#017380:14
#018380:24
#019340:14
#020340:24
#022340:14003454
#023320:38003858
#024340:34003434
#025330:36
#025320:00382800
#033380:1626
#037320:1626
#0453a0:14
#045380:00000000000000000034000000002400
