This file was generated by Ched 2.7.0.0.
#TITLE ""
#ARTIST ""
#DESIGNER ""
#DIFFICULTY 0
#PLAYLEVEL
#SONGID ""
#WAVE ""
#WAVEOFFSET 0
#JACKET ""
#REQUEST "ticks_per_beat 480"
#00002: 4
#BPM01: 122
#00008: 01
#TIL00: ""
#VOLUME: ""
#HISPEED 00
#MEASUREHS 00
#00912:13
#00918:0023000000130013
#00915:00000000130000000000001300000000
#0091b:13
#0121b:0000130000130000
#01212:0000130000130000
#01218:24000024
#01214:0000002400000000
#00414:00141414
#00418:0000001400140000
#00518:0013000000130013
#00512:24130000
#00515:00000000000000000000001300000000
#00510:41
#0151a:14
#01512:14
#01518:0000130000130013
#01515:00001313
#01612:14
#0161a:14
#01615:0000001300130000
#01618:000000130013
#01610:41
#02618:0000131300130013
#02615:00000000001300000000001300000013
#0261b:13
#02612:0013000013000000
#0381b:13
#03818:0013000000130000
#03812:0000001300000000
#03815:00131300
#0111b:13000000000000000000000000130000
#01112:1300000013000013
#01115:00130000
#01118:0013000000000000
#03012:0000140000000013
#0301b:0013
#03015:0000000000130000
#03018:00000000000000000000001300000000
#0301a:24
#0301f:21
#03118:00001300000000130000000000001300
#0311b:00130000
#03115:1300001300001300
#03112:0000000000130000
#03110:41
#00218:0014
#00214:00000014
#0021a:14
#00212:00140000
#00318:14141414
#00314:0014001400140000
#00612:13
#00615:0013000000130013
#0061b:13130000
#00618:00000000000000000000001300000000
#0131a:14
#01318:0000130000130013
#01312:14
#01315:00001313
#01412:14
#01415:0000130000130013
#0141a:14
#01418:00001313
#02418:00131316
#02415:0013001300130000
#0241a:24
#02115:0000000000000013
#02118:00000013
#0211b:13
#02110:41
#0251b:0013
#02518:0000260000130000
#02515:00000013
#02512:1600000013000013
#0271b:0000130000130000
#02715:0000001313000013
#02718:13000000000000130000000013000000
#02712:0013000000000000
#02812:1313
#02815:00130000
#02912:0014000000130000
#02918:00000000000000140000000013000000
#02915:0000000000000013
#0291a:14140000
#02914:0000001400000000
#04018:1313
#04015:0013001300000000
#04012:00130000
#0401b:0000000000130000
#00718:0013000000130013
#00712:13130000
#00715:00000000000000000000001300000000
#0071b:13
#00812:1300002400000000
#0081b:1313
#00818:00130013
#00815:0000000000130013
#00814:0024000000000000
#0101b:13
#01015:0013000000130013
#01018:00000000130000000000001300000000
#01012:13
#01010:41
#01818:13130000
#0181b:00001313
#01812:0023002300000000
#01815:0000000000230023
#0171b:00131313
#01715:0023002300230023
#01918:1313
#0191b:00130013
#01912:0023000000230000
#01915:0000002300000023
#0201b:1313
#02018:00130013
#02012:0023000000230000
#02015:0000002300000023
#02218:00130000
#0221a:24000014
#02212:0013000000000000
#02215:0000001300000000
#0221f:11
#0321b:1313
#03212:1313
#03218:0000130000130013
#03215:0013001300001300
#03312:13131300
#03315:00002400000000000000130000130000
#0331b:13131300
#03318:00000013
#03317:0000002400000000
#0341a:00140000
#03412:2413
#03418:0000000000130000
#03415:00000000000000000000001300000000
#0341b:0000000000000013
#03515:00001300000000130000000000001300
#03512:00130000
#03518:1300001300001300
#0351b:0000000000130000
#03612:13
#03613:00130000
#0361a:0000001300000000
#0361b:0013000000000000
#03615:00000013
#03614:0013
#03619:0000000000130000
#03618:0000000000000013
#03715:2313
#03712:00130000
#03912:13
#03915:0013000000130000
#0391b:0000001300000000
#03918:00131300
#04115:1313
#04112:0000000000130000
#04118:0013001300000000
#0411b:00130013
#04110:41
#04212:13
#04215:0013000000130000
#04218:00131300
#0421b:0000001300000000
#0431b:13
#04318:0013000000130000
#04315:00131300
#04312:0000001300000000
#04415:00000000000000001300001300000000
#04418:0000260000130000
#04412:26
#0451b:13
#04518:00001300000000000024002400000000
#04512:0000001300000000
#04515:00130000
#04514:0000000000242400
#0011a:0014
#00112:0014
#00115:26
#02312:24000016
#02315:00130000
#0231b:0013000000000000
#02318:0000001300000000
#00552:14530000
#00555:00000000000000000000001300000000
#00955:00000000630000000000001300000000
#0155a:14
#01552:14
#01652:14
#0165a:14
#01658:000000000053
#04554:0000000000000014
#00155:16
#0015a:0014
#00152:0014
#00258:0014
#00254:00000014
#0025a:14
#00252:00140000
#0135a:14
#01352:14
#01452:14
#0145a:14
#02855:00630013
#02852:5353
#0305a:14
#03052:00140000
#00454:00000064
#0045a:14
#00358:00000054
#0065b:00630000
#00658:00000000000000000000001300000000
#00752:00530000
#00755:00000000000000000000001300000000
#01058:00000000530000000000001300000000
#01155:00000000630000000000001300000000
#01152:0053
#0175b:13
#03355:00000000000000000000000000630000
#03452:14
#0345a:00140000
#03752:00530013
#03755:6363
#03858:0000000000530000
#03955:0000000000630000
#0405b:0000000000630000
#04255:0000000000630000
#04358:0000000000530000
#04455:00000000000000000000001300000000
#04452:16
#04458:00160000
#0225a:00000064
#02352:00000066
#02458:00000016
#02552:16
#02558:00160000
#003380:00000014
#0043a0:24
#004340:00000014
#005320:24
#005320:00130000
#005350:0023
#0063b0:00130000
#006380:0023
#007320:00130000
#007350:0023
#009350:00130000
#009320:0023
#010380:00130000
#0103b0:0023
#011350:00000000130000000000002300000000
#011320:0033
#016380:000000000000000000133300
#0173b0:23
#021320:00001300003300000000000000000000
#021350:00000000000000330000230000000000
#0223a0:00001454
#023380:26
#023320:00001656
#024320:24
#028320:1333
#028350:00330023
#033350:00000000000000000000000000130000
#034320:24
#037350:1333
#037320:00330023
#038380:0000000000130000
#0383b0:0000000000000023
#039350:0000000000130000
#039320:0000000000000023
#0403b0:0000000000130000
#040380:0000000000000023
#042350:0000000000130000
#042320:0000000000000023
#043380:0000000000130000
#0433b0:0000000000000023
#045340:0000000000001424
