This file was generated by Ched 2.7.0.0.
#TITLE ""
#ARTIST ""
#DESIGNER ""
#DIFFICULTY 0
#PLAYLEVEL
#SONGID ""
#WAVE ""
#WAVEOFFSET 0
#JACKET ""
#REQUEST "ticks_per_beat 480"
#00002: 4
#BPM01: 148
#BPM02: 150
#BPM03: 152
#00008: 01
#02308: 02
#02708: 03
#TIL00: ""
#VOLUME: ""
#HISPEED 00
#MEASUREHS 00
#00518:00130000
#0051b:0000000000000013
#00515:0000001300000000
#00510:41
#00615:13
#00618:0013001300000000
#00612:00130000
#0091b:1300000000130000
#00915:0013000000001300
#00918:0000130000000013
#00912:0000001300000000
#01012:00000013
#01018:0000000000000013
#01112:0000001300000000
#01118:0000000000130000
#01115:13000013
#0111b:0000130000000013
#01318:00130000
#01315:0000001300000000
#0131b:0000000000000013
#01312:23
#01310:41
#01418:0013000000000000
#0141b:0000001300000000
#01415:13000013
#01412:00130000
#01615:0013000000000013
#01612:0000001300000000
#01618:13000013
#0161b:00130000
#01718:1300000000130000
#01712:0013000000000000
#01715:0000001300001300
#0171b:0000130000000013
#01815:00130000
#01818:0000000013000013
#01812:00000013
#01915:1300000000130000
#0191b:0013000000000000
#01918:0000001300001300
#01912:0000130000000013
#0201b:0000001300000000
#02015:0013
#02018:0000000000130000
#02012:00000013
#02118:00130013
#02112:0000001300000013
#02115:0013000000130000
#0211b:2313
#02110:41
#02718:0000130000130000
#02712:0013
#02715:23000013
#0271b:0000000000000013
#02912:0013000000000000
#0291b:00130000
#02918:0000001300130013
#02915:23001313
#03015:1300000000000023
#03018:00000023
#03218:00000013
#03212:0000000000000013
#03215:0000000000130000
#03210:41
#0331b:1300000000130000
#03315:0013000000000000
#03318:00130000
#03312:0000001300000013
#03418:0013000000000000
#03415:0000130000000013
#0341b:0000001300000000
#03518:1300000000130000
#03515:00130000
#0351b:0000001300000000
#03512:0000000013000024
#0361b:0000000000130000
#03615:00000013
#03618:0024000000000013
#03614:0000002400000000
#03712:1300000000000013
#03718:0013000000001300
#03715:0000130000130000
#0371b:0000001300000013
#03812:0000000000130000
#03818:00000013
#03815:0000000000000013
#04018:00000023000000000000130000000000
#04015:0000002300001300
#0401b:0000000000000013
#04012:23
#04115:0013000000000013
#04118:00130013
#04112:0013
#0421b:0013000000000013
#04215:0000001300000000
#04218:0013
#04212:0000000000000013
#04412:0000000000000013
#04415:00001300130000130000000000000000
#04418:00000013000013000000000000000000
#04518:13000013
#04515:0013001300000000
#0451b:00130000
#04512:0000000000000013
#0491b:13
#04915:0000001300000000
#04918:0013
#04912:0000000000000013
#05615:13000013
#05618:0013001300000000
#05612:00130000
#00316:14
#00312:00343434
#00112:14343434
#00715:00130000
#00712:0000000000000013
#00718:0000001300000000
#00818:13
#00815:0013001300000000
#0081b:00130000
#01515:00130000
#01518:1300001300000000
#01512:0000000000000013
#02312:13
#0231f:11
#02315:0000003300003300
#02418:13
#0241b:0000003300003300
#02515:13
#02512:0000003300003300
#0261b:13
#02618:0000003300003300
#02818:0000130000130000
#02812:0013
#02815:23000013
#0281b:0000000000000013
#0391b:2300000000130000
#03915:00000023000000000000000013000000
#03918:0000002300000013
#04318:00001300130000130000000000000000
#04315:00000013000013000000000000000000
#04312:0000000000000013
#0431b:0000000000000013
#04310:41
#04718:00000013000000000000000000000000
#04715:0000002300130000
#04712:00000013000000000000000000000000
#0471b:1300002300130000
#0471a:00000013
#04719:0000000000000013
#04714:00000013
#04713:0000000000000013
#04812:13
#04815:00001300001300000000000000001300
#04818:13000013000013000000000000000000
#04618:0000000000000013
#04615:00003300330033000000000000000013
#05012:0013000000000000
#05018:00000013000000000000000000001300
#0501b:13
#05015:00000000001300000000000013000000
#05112:23000000000000330000130000000000
#05118:00000013000000000000000013000000
#05115:0000230000000013
#05110:41
#0521b:23000000000000330000130000000000
#05215:00000013000000000000000013000000
#05218:0000230000000013
#05312:23000000000000330000130000000000
#05318:00000013000000000000000013000000
#05315:0000230000000013
#05415:00000013000000000000000023000000
#0541b:23000000000000330000000000000000
#05418:00230000
#05518:00130000
#05515:0000001300000000
#0551b:2300000000000013
#05512:23
#05818:13000013
#05815:0013001300000000
#0581b:00130000
#05715:00130000
#05718:0000001300000000
#05712:2300000000000013
#0571b:23
#06015:13000013
#06018:0013001300000000
#06012:00130000
#05918:00130000
#0591b:2300000000000013
#05912:23
#06218:13
#06215:0013001300000000
#0621b:00130000
#0621a:0000000000240000
#06216:00000024
#06212:0000000000000024
#06115:00130000
#06112:2300000000000013
#0611b:23
#0221b:23
#03115:00000023
#03118:0000000000000023
#0311f:21
#00212:34343434
#00412:34343434
#00658:0000001300000000
#0145b:0000001300000000
#01952:0000000000000013
#03055:5300000000000053
#03052:0013
#03352:0000001300000000
#0335b:0000000000130000
#0345b:0000005300000000
#03752:0000000000000053
#0375b:0000000000000063
#0395b:13
#03955:00000013000000000000000000000000
#03958:0000001300000000
#04258:0013
#04555:0000005300000000
#04552:0000000000000053
#0495b:53000000000000000000001300000000
#04958:0053
#05658:0000001300000000
#00152:54
#00356:24
#00855:0000001300000000
#01355:0000005300000000
#01558:0000006300000000
#01652:0000001300000000
#0175b:0000000000000013
#0225b:53
#02458:53
#02352:53
#02555:63
#0265b:63
#03158:0000000000000063
#04052:13
#04058:00000013000000000000000000000000
#04055:0000001300000000
#04355:00000000000000000000001300000000
#04458:00000000000000000000001300000000
#04858:0000006300000000
#04755:0000001300000000
#0475b:0000001300000000
#05152:13
#05155:00530000
#0525b:13
#05258:00630000
#05352:13
#05355:00530000
#0545b:13
#05458:00630000
#05855:0000001300000000
#06058:0000001300000000
#06255:0000001300000000
#001320:14343434
#002320:34343434
#003360:34
#003320:00343434
#004320:34343434
#005320:24
#013350:0000001300000000
#013320:00000023
#015380:0000001300000000
#0153b0:00000023
#0223b0:13
#023360:24
#023321:13
#023351:0000003300003300
#024351:23
#024380:13
#0243b0:0000003300003300
#0253b0:23
#025351:13
#025321:0000003300003300
#026321:23
#0263b0:13
#026380:0000003300003300
#027380:23
#030350:13
#030320:0023
#030350:0000000000000013
#031320:0023
#031380:0000000000000013
#0323b0:0023
#0343b0:0000001300000000
#034380:00000023
#037320:0000000000000013
#038350:0023
#0373b1:0000000000000013
#038381:0023
#043351:00000000000000001300002300000000
#044381:00000000000000001300002300000000
#045351:0000001300000000
#045321:0000000000230000
#045321:0000000000000013
#046351:0033333323000000
#048381:0000001300000000
#0483b1:00000023
#0493b1:13
#049381:00000023000000000000000000000000
#049381:0013
#0493b1:00000000000000000000002300000000
#0503b1:0000001300230000
#051351:00130000
#051321:00000000000000332300000000000000
#052381:00130000
#0523b1:00000000000000332300000000000000
#053351:00130000
#053321:00000000000000332300000000000000
#054381:00130000
#0543b1:00000000000000332300000000000000
#059351:0000001300002300
#061381:0000001300002300
