This file was generated by Ched 2.7.0.0.
#TITLE ""
#ARTIST ""
#DESIGNER ""
#DIFFICULTY 0
#PLAYLEVEL
#SONGID ""
#WAVE ""
#WAVEOFFSET 0
#JACKET ""
#REQUEST "ticks_per_beat 480"
#00002: 4
#BPM01: 148
#BPM02: 150
#BPM03: 152
#00008: 01
#02308: 02
#02708: 03
#TIL00: ""
#VOLUME: ""
#HISPEED 00
#MEASUREHS 00
#0051a:0014
#00510:41
#00612:14
#00618:0014
#00714:14
#0071a:0014
#00812:14
#00818:0014
#00914:14
#00918:0014
#01118:14
#01114:0014
#01312:1414
#01318:00140000
#01310:41
#0141a:1414
#01414:00140000
#01512:1414
#01518:00140000
#0161a:1414
#01614:00140000
#01712:14
#01714:00343400
#01818:14
#0181a:00343400
#01914:14
#01912:00343400
#0201a:14
#02018:00343400
#02112:14
#02118:00140000
#02114:0014
#0211a:00000014
#02110:41
#02212:14
#02318:0000000000000014
#0231a:1400003400003400
#0231f:11
#02514:0000000000000014
#02512:1400003400003400
#02718:14
#0271a:00343400
#02814:14
#02812:00343400
#02918:1414
#02914:00140014
#03018:14
#03118:00000014
#03112:24
#0311f:21
#03114:00340000
#03218:00000014
#03214:24
#03212:00340000
#03210:41
#03312:14
#03318:00140000
#03314:0014
#0331a:00000014
#03414:14
#03418:00140000
#03412:0014
#0351a:1414
#03514:00140000
#03612:1414
#03618:00140000
#0371a:14
#03714:00140000
#03718:0014
#03712:00000014
#0381a:14
#04112:1414
#04118:00140014
#04214:1414
#0421a:00140000
#0431a:14
#04314:00140000
#04318:0014
#04312:00000014
#04310:41
#0441a:14
#04414:00140000
#04418:0014
#04412:00000014
#0451a:1414
#04514:00140014
#0461a:14
#0471a:00000014
#04713:00240000
#04719:00240000
#04814:14
#04818:00140000
#04812:0014
#0481a:00000014
#05012:14
#05018:00140000
#05014:0014
#0501a:00000014
#05112:14
#05118:0014
#05114:00000014
#05110:41
#0521a:14
#05214:0014
#05218:00000014
#05312:14
#05318:0014
#05314:00000014
#0541a:14000024
#05414:0024
#05518:00140000
#05514:0014
#05512:14
#05614:00140000
#05618:0014
#0561a:14
#05718:00140000
#05714:0014
#05712:14
#05814:00140000
#05818:0014
#0581a:14
#05918:00140000
#05912:0014
#05914:14
#06014:00140000
#0601a:0014
#06018:14
#06118:00140000
#06112:0014
#06114:14
#06214:00140000
#0621a:0014
#06218:1400000000000026
#06212:00000026
#00114:1838
#00316:14
#00314:0038
#03912:24
#0401a:24
#00414:3838
#00214:3838
#0241a:0000003400000000
#02612:0000003400000000
#01752:54
#01858:54
#01954:64
#0205a:64
#02252:54
#0235a:54
#02358:0000000000000024
#02554:0000000000000024
#02552:64
#02758:54
#02854:64
#03058:54
#03152:54
#03254:64
#03452:0014
#0385a:54
#03954:0000001400000000
#04058:0000001400000000
#04254:0014
#0465a:54
#04658:0014
#04759:00140000
#04753:00140000
#05152:54
#05154:00140000
#0525a:64
#05258:00140000
#05352:54
#05354:00140000
#0545a:64000014
#05458:00140000
#05952:0014
#0605a:0014
#06152:0014
#0625a:0014
#00154:58
#00356:24
#001340:1838
#002340:3838
#003360:34
#003340:0038
#004340:3838
#005340:28
#010320:1424
#0123a0:1424
#017320:14
#017340:00343424
#018380:14
#0183a0:00343424
#019340:14
#019320:00343424
#0203a0:14
#020380:00343424
#022320:14
#022340:00000024
#0233a0:1400003400003400
#023380:0000000000000054
#0243a0:0000003400002400
#025320:1400003400003400
#025340:0000000000000054
#026320:0000003400002400
#027380:14
#0273a0:00343424
#028340:14
#028320:00343424
#030380:14
#0303a0:0024
#031320:14
#031340:00342400
#032340:14
#032320:00342400
#0383a0:14
#038380:0024
#039320:14
#039340:00000034000024000000000000000000
#0403a0:14
#040380:00000034000024000000000000000000
#0463a0:14
#046380:0024
#047330:14240000
#047391:14240000
#049321:14240000
#049381:00001424
#051321:14
#051341:00240000
#0523a1:14
#052381:00240000
#053321:14
#053341:00240000
#0543a1:14
#054381:00240000
