This file was generated by Ched 2.7.0.0.
#TITLE ""
#ARTIST ""
#DESIGNER ""
#DIFFICULTY 0
#PLAYLEVEL
#SONGID ""
#WAVE ""
#WAVEOFFSET 0
#JACKET ""
#REQUEST "ticks_per_beat 480"
#00002: 4
#BPM01: 137.5
#00008: 01
#TIL00: ""
#VOLUME: ""
#HISPEED 00
#MEASUREHS 00
#00314:14
#00418:14
#00512:14
#0061a:14
#00610:41
#0071a:14
#00814:14
#00918:14
#01012:14
#01112:14
#01218:14
#01314:14
#02218:14
#0221f:11
#02314:14
#02418:14
#02514:14
#0261a:14
#02712:14
#03218:0016
#03212:26
#0321f:21
#03210:0041
#03312:16
#03318:0016
#03612:0016
#03618:16
#03718:16
#03712:0016
#04012:2616
#04118:1616
#04418:1616
#04512:1616
#05214:14
#05218:0014
#05312:14
#05418:14
#05414:0014
#05612:0014
#05718:14
#05714:0014
#05914:0014
#05910:41
#06018:14
#06014:0014
#0611a:14
#06112:0014
#06314:14
#06318:0014
#06414:14
#06418:0014
#06512:14
#0651a:0014
#06814:14
#06918:14
#07018:14
#0021a:24
#0511a:24
#05110:41
#0551a:24
#06612:24
#0581a:24
#07112:26
#01410:41
#06710:41
#0585a:54
#07152:66
#0143a0:14
#0153a0:24
#016320:14
#017320:24
#018380:14
#0193a0:24
#020340:14
#021320:24
#0283a0:14
#029380:34
#030380:34
#0313a0:24
#034320:16
#035320:26
#038380:16
#039380:26
#042320:16
#042330:0036
#043330:36
#043320:0026
#046380:16
#046370:0036
#047370:36
#047380:0026
#048320:14
#049340:34
#050320:24
#0553a0:14
#0563a0:24
#0583a0:14
#059380:24
#0623a0:1424
#066320:14
#066340:0034
#067340:24
#071320:16
#074320:00000023000000000000000000000000
