This file was generated by Ched 2.7.0.0.
#TITLE ""
#ARTIST ""
#DESIGNER ""
#DIFFICULTY 0
#PLAYLEVEL
#SONGID ""
#WAVE ""
#WAVEOFFSET 0
#JACKET ""
#REQUEST "ticks_per_beat 480"
#00002: 4
#BPM01: 137.5
#00008: 01
#TIL00: ""
#VOLUME: ""
#HISPEED 00
#MEASUREHS 00
#00212:2500140053130013
#0021a:00140000
#00217:0000000000001313
#00215:0000001300000000
#00218:0013
#00219:25
#00214:000000000053000000000000
#00213:000000000000000000000053000000000000000000000000
#00315:0013000000130013
#00312:0000000000000000530000001300000000000000003300000000000000000000
#00318:00000013
#0031b:0000000000130000
#00314:005300000000
#00313:000000000053000000000000000000000000000000000000
#0041a:240000000000140000000053000000000000000000000000
#00412:24140000
#0041b:0000000053130013
#00416:0000000000001313
#00418:0000001300000000
#00415:0013
#00419:000000000053000000000000
#00518:0013000000230023
#0051b:0000000000000000530000001300000000000000003300000000000000000000
#00515:00000023
#00512:0000000000230000
#00519:005300000000
#0051a:000000000053000000000000000000000000000000000000
#0061b:0000130000000013
#00612:2400130000130000
#00618:0000001313000000
#00615:00000000000000130000000000000000
#0061a:24
#00610:41
#00712:0000130000000014
#0071b:00130000
#00715:0000001313000000
#00718:00000000000000130000000000000000
#0071a:0000000000140000
#00716:24000014
#0081b:0000130000130013
#00812:0000130000130000
#00818:0000001313000000
#00815:00000000000000130000000000000000
#0081a:24
#00917:1300001300001300
#0091b:0000000000130000
#00916:0000130000130000
#00912:0013000000001300
#01012:0000130000000023
#01014:0000001300000000
#0101b:00130013
#01019:00000000000000130000000000000000
#01017:0000000000000023
#01016:0024
#01212:0013001300000000
#01217:00130000
#0121b:0000000000130013
#01216:00000013
#01317:0013000000230000
#0131b:0000000000000013
#01316:00000000000000000000000000000013
#01312:0013000000230000
#01412:0013130000131300
#01417:00000013000000000000001300000000
#0141b:2300001313000013
#01416:00000000000000130000000000000013
#01410:41
#01516:0000000000130000
#01512:0000000000000013
#01517:00000000000000000000000000000013
#0151b:2300000000230000
#01518:0023000000000000
#01515:00230000
#0151a:0000002400000000
#01612:1300001313000013
#0161b:0013130000131300
#01616:00000013000000000000001300000000
#01617:00000000000000130000000000000013
#01717:0000000000130000
#0171b:0000000000000013
#01716:00000000000000000000000000000013
#01712:2300002400230000
#01715:0023000000000000
#01718:00230000
#0181b:1300001300000000
#01812:0000131300000000
#01817:0013000000000000
#01818:0000000000000013
#01815:0000000000000023
#01912:0000001300000000000000000000000000000000000000000000000000000000
#0191b:0000000000000000001300000000000000000000130000000000000000000000
#01915:2300002300001300
#01918:13000023000000000000000000001300
#0201b:13
#02016:13000024000000001300000000001300
#02012:0000002300001300
#02112:0013
#0211b:00001313
#02113:00000000000000000053000000000000
#02114:0000000000530000
#02115:00000000000000000000005300000000
#02116:00000053
#0211a:00000000000000000000000000530000
#02119:0000000000000053
#02118:00000000000000000000000000000053
#02217:53000013000013000000000000000000
#02212:24141414
#0221b:00000013
#02219:0000000000000013
#0221f:11
#02312:14141414
#02317:13000000000000000013000000000000
#02319:00000013000000000000000000000000
#0231b:0000001300000000
#02315:0000000000000013
#02318:00000000000000000000000000000013
#0241a:24141414
#02416:00000013000013000000000000000000
#02412:24000013
#02414:0000000000000013
#0251a:14141414
#02516:13000000003313000000000000000000
#02518:0000000000000013
#02515:00000000000000000000000000000013
#02512:00003313000000000000000000000000
#02612:24141414
#0261a:14000000003300000000000000000000
#02617:00003313000000000000130000000000
#02619:00000013
#0261b:0000000000000013
#02712:14141414
#0271b:00003313003300000000000000005300
#02717:13000013
#02719:00000000000000000000000000530000
#02818:0013001300000000
#02815:00000013001300000000000000000000
#0281b:0013
#02819:0000000000130013
#02812:24000013
#02817:00000013
#02814:0000000000130013
#0281a:24
#02915:0013001300000000
#02918:00000013001300000000000000000000
#02912:0013
#02914:0000000000130013
#0291b:00000013
#02916:00000013
#02919:0000000000130013
#0301b:00001300000000000013000000000000
#03015:00000013000000000000000000000000
#03018:00000000001300000000000000000000
#03019:00000013
#03012:0000002300000023
#03016:0000000000230000
#03014:00000023
#03017:0000000000000023
#0331a:0014001400140014
#03312:00140014
#03316:1414
#0321a:2414
#03212:2400000026000014
#03214:0024000000260000
#03216:00240026
#03218:0000002400000026
#0321f:21
#03210:0041
#0341a:14000014
#03416:1400001400140000
#03412:0000141400000014
#03516:2400001400001314
#03512:2400000000000013
#0351a:0000242400000000
#03614:00140053
#0361a:0000001400000000
#03617:0000000000130000
#03612:0000000000130000
#03619:00000053
#0361b:0000000000000053
#03616:0000000000000053
#03716:0000000000130000
#03714:00000013
#03712:0026002600000013
#03718:00260000
#03719:00000023
#03717:0000000000000023
#0371b:0000000000230000
#03815:1423
#03817:00000014000000000000000000000000
#0381a:2400000000230000
#03812:00000024000000000000000000000000
#03818:0000002300000000
#03813:00000023
#03816:0000000000000024
#04016:2423001424000000
#04018:00140000
#0401a:0014000000000000
#04014:00230014
#04012:2300002300140000
#04017:0000000000230000
#04019:00000023
#0401b:0000000000000023
#04112:0014001400140014
#0411a:00140014
#04116:0014
#04212:14000014
#04216:1400001400140000
#0421a:0000141400000014
#04316:2400001400140014
#0431a:24000014
#04312:0000242400000000
#04412:0000240000140014
#0441a:00000014
#04416:0024002400000000
#04519:00000013
#0451b:0000000000000013
#04514:000000000000000000230016
#0451a:0024002400000000
#04512:0000240000230000
#04516:0000000000000023
#04616:1316000000000000000000000000000000000000000000000000000023000000
#04619:00130013
#04612:0000001300230000
#04614:00130023
#0461b:0013000000000000
#04712:0000000000130000
#04714:00000013
#04716:0000000000000013
#04717:0000000000230000
#04719:00000023
#0471b:0000000000000023
#04816:0013000000000013
#04814:00130013
#04819:00230023
#04817:0000002300230000
#0481b:0000000000000023
#04918:1300000000000024
#04916:0013000000000000
#04914:0000130000000014
#04912:0000001300000000
#04915:0013
#04913:00000014
#04919:00230024
#04917:0000002300000000
#0491a:0000000000240000
#05112:25141313
#05118:0000000053130000
#0511b:0000001300000013
#05116:0000000000000013
#0511a:000000140053000000000000
#05119:250000000000000000000053000000000000000000000000
#05110:41
#05218:0000531300130013
#05215:00000013
#0521b:0000000013000000000000000000000000000000003300000000000000000000
#05212:0000000000130000
#0521a:005300000000
#05219:000000000053000000000000000000000000000000000000
#0531a:1400140000002424
#05312:1400141300002424
#05316:0000000000130000
#0531b:0013
#05313:000000000053000000000000
#05314:000000000000000000000053000000000000000000000000
#05315:0053
#05418:0013000000000000
#05419:00000013
#05417:0000002300000013
#05415:00230000
#05416:0000000000230000
#05414:00000023
#05412:0000000000000023
#0551a:00000000000000140000000000000000
#05515:00000000000000140000000000000000
#05615:0000001300130013
#05618:00130013
#05612:0000000000000000130000000000000000000000003300000000000000000000
#0561b:0000001300130000
#0571a:24140000
#05715:0000000053130000
#0571b:00001313
#05712:2400141300001300
#05718:0000000000000013
#05713:000000000053000000000000
#05714:000000000000000000000053000000000000000000000000
#0581a:14
#05818:0012000000000000
#05816:0012000000000000
#05812:24
#05916:00141400
#05912:00002414
#0591a:0000240000140000
#05910:41
#06016:1400241400002400
#06014:0014000000000000
#06012:0000140000000014
#0601a:2400002400000024
#06018:0024000000000000
#06116:0000140014000014
#06112:0000240000140024
#0611a:00002414
#06216:0024001414140000
#06212:0000001400140000
#0621a:0024000014000000
#06316:00141400
#0631a:00002414
#06312:2500240000140000
#06319:25
#06416:1400241400002400
#06418:0014000000000000
#0641a:0000140000000014
#06412:2400002400000024
#06414:0024000000000000
#06516:0000140014000014
#0651a:0000240000140024
#06512:00002414
#0661a:0000001400000000
#0661b:00000013
#06618:0000000000120000
#06612:0024001400001300
#06616:0024000000120000
#06816:00000014
#06812:0000531300000014
#06818:0000531300000000
#0681a:000000005300000000000000000000140000000000000000
#0681b:0053000000000000
#06819:000000000053000000000000000000000000000000000000
#06815:0053000000000000
#06813:000000000053000000000000000000000000000000000000
#06814:005300000000
#0671b:0000131300000000
#06715:0000131300000000
#06718:0000000053130013
#06712:0000000053130013
#06710:41
#0671a:000000000053000000000000
#06719:000000000000000000000053000000000000000000000000
#06714:000000000053000000000000
#06713:000000000000000000000053000000000000000000000000
#06912:2400131300000000
#06918:0000131300000000
#06915:0000000053130013
#0691b:0000000053130013
#0691a:240000000000000000000053000000000000000000000000
#06913:000000000053000000000000
#06914:000000000000000000000053000000000000000000000000
#06919:000000000053000000000000
#0701b:0000531300000000
#07015:0000531300000000
#0701a:000000000053000000000000000000240000000000000000
#07016:00000024
#07012:0053000000000024
#07014:000000000053000000000000000000000000000000000000
#07013:005300000000
#07018:0053000000000000
#07019:005300000000
#01114:0000000000130000
#01115:00000013
#01116:0023000000000013
#01117:0000002300000000
#03116:0024002500000000
#03112:0000000000250000
#03916:0023000000230000
#03914:00232300
#03919:00232300
#03912:0000002300000000
#03917:0000002300000000
#0391b:0000000000230000
#0501b:00230000
#05012:00230024
#05015:0000002300000000
#05018:0000002300000000
#0501a:00000024
#05016:0000000000000024
#07115:26
#07417:00000062000000000000000000000000
#05159:45
#05152:35140000
#0515b:0000000000000013
#05156:0000000000000063
#00252:3500000000000013
#00259:45
#00257:0000000000000053
#0025a:00140000
#00352:0000001300000000
#00355:0000000000630000
#0035b:0000001300000000
#0045b:0000000000000013
#00456:0000000000000063
#00452:00140000
#0055b:0000001300000000
#00558:0000000000630000
#00552:0000001300000000
#00652:1400000000130000
#0065b:0000000000000013
#0065a:14
#00852:0000000000630000
#00856:0000000000000013
#0085b:0000000000000063
#00957:2300006300005300
#0095b:0043000000630000
#00956:0000230000630000
#00952:0053003300005300
#0105b:13
#01056:1300000000140000
#01057:0000000000000063
#01156:0053000000000013
#0115b:0000000000000013
#01252:0000006300000000
#0125b:0000000000000053
#01357:0063000000130000
#01356:0000001300000000
#0135b:0000001300000000
#01352:0063000000130000
#0145b:1313
#01452:00130013
#01556:0000000000630000
#0155b:0000000000630000
#01652:1313
#0165b:00130013
#01752:0000000000530000
#01757:0000000000530000
#0185b:6300006300000000
#01857:0023000000000000
#01852:0000006300000000
#01858:0000000000130000
#01855:0000000000130000
#01952:0000002300000000000000000000000000000000000000000000000000000000
#0195b:0000000000000000002300000000000000000000000000000000000000000000
#01958:00000053000013000000000000000000
#01955:6300006300000000
#02056:63000064000000006300000000006300
#02052:00000013000063000000000063000000
#0215b:00130000
#02152:00130000
#02257:0000006300000000
#02252:14
#0235b:0000006300000000
#02357:00000000000000000023000000000000
#02456:0000005300000000
#02556:5300005300000000
#02552:00000023000000000000000000000000
#0265a:64
#02657:00000023000000000000000000000000
#0265b:0000004300000000
#02757:6300001300000000
#0275b:00000023000000000000000000000000
#0285b:0023
#02859:0000000000630063
#02852:00000023
#02857:00000023
#02854:0000000000530063
#02858:0000006300000000
#0295b:13000023
#02956:13000023
#02952:0023
#02954:0000000000530053
#02959:0000000000630053
#02955:0000005300000000
#03052:1300006300000013
#03057:1300000000000063
#03055:00000013000000000000000000000000
#03156:0064006500000000
#03152:0000000000150000
#03159:0000000000150000
#0325a:44
#03258:0000000000000046
#03252:0000000000000064
#03352:00140014
#03356:2414
#03452:0000001400000000
#03456:1400006400000000
#0345a:64
#03556:1400005400000064
#03552:64
#0355a:0000001400000000
#03654:00140000
#0365a:0014001400000000
#03752:0036003600000000
#03758:00460000
#0385a:44
#03852:00000034000000000000000000000000
#03853:0000000000000013
#03956:0000000000630000
#0395b:0000000000630000
#04056:6400002454000014
#04058:00640000
#0405a:0024000000000000
#04054:00000054
#04052:0000000000240000
#0405b:0000000000000013
#0415a:00140014
#04156:0014
#04252:54
#04256:1400005400000000
#0425a:0000001400000000
#04356:1400006400000064
#0435a:54
#04352:0000001400000000
#04456:0000006400000000
#04452:0000000000000064
#0455a:0000006400000000
#0455b:0000000000000013
#04554:000000000000000000000026
#04556:0000000000000063
#04656:2366000000000000000000000000000000000000000000000000000000000000
#04652:0000001300000000
#04756:0000000000000013
#04857:0000001300000000
#0485b:0000000000000063
#04856:0000000000000013
#04958:2300000000000014
#04952:0000006300000000
#04955:0023
#04957:0000001300000000
#04954:0000000000000014
#05055:0000006300000000
#05058:0000005300000000
#05258:0000001300630000
#05252:0000001300000000
#0535a:0000140000000014
#05352:0000000000000014
#05455:00630000
#05457:0000006300000063
#05452:0000001300000063
#0555a:00000000000000240000000000000000
#05555:00000000000000240000000000000000
#05655:0000001300530000
#05657:15
#05652:15
#0565b:0000001300000000
#0575a:00140000
#05958:46
#05952:3614
#0595a:0000140000240000
#05956:0064
#05852:64
#0585a:64
#05858:0022000000000000
#05856:0022000000000000
#06056:0000006400000000
#0605a:0000001400000014
#06052:0000000000000014
#06156:0000000054000064
#06152:0000140000240014
#0615a:0014
#0625a:0014000024001400
#06256:0064006424641400
#06252:0000006400640000
#06456:0000005400000000
#0645a:0000000000000014
#06452:0000001400000014
#06556:0000000064000054
#0655a:0000140000240014
#06552:0014
#06356:0054
#06352:0000140000240000
#0635a:0014
#0665a:0000005400000000
#06652:0014006400002300
#06656:0054000000520000
#0665b:00000023
#06658:0000000000620000
#06758:1600000000000063
#06752:1600000000000063
#06852:0000001300000000
#06858:0000001300000000
#06955:0000000000000053
#0695b:0000000000000053
#0705b:0000001300000000
#07055:0000001300000000
#07155:66
#002370:0000000000000013
#0033b0:0000332300000000
#003350:0000000000130000
#003320:0000000000000000000000000000000000000000003300002300000000000000
#004360:0000000000000013
#005320:0000332300000000
#005380:0000000000130000
#0053b0:0000000000000000000000000000000000000000003300002300000000000000
#008320:0000000000130000
#008360:0000000000000023
#0083b1:0000000000000013
#009371:53
#0093b1:0023000000000000
#009320:0013002300000000
#009360:00530000
#009371:0000001300003300
#0093b1:0000000000330000
#0103b1:23
#009360:0000000000130000
#009320:00000033
#010360:23
#010360:0000000014240000
#010370:0000000000000013
#0113b0:0023000000000000
#011361:0013000000000000
#011321:0000002300000000
#011370:0000001300000000
#0113b0:0000000000000023
#012320:0000001300000000
#012360:0000000000230000
#0123b0:0000000000000013
#013370:0033000000000000
#0133b0:0000002300000000
#013321:0013000000000000
#013361:0000002300000000
#015321:0000001300002300
#015361:0000000000330000
#0153b0:0000000000130000
#015370:00000023
#0173b0:0000001300002300
#017370:0000000000330000
#017321:0000000000130000
#017361:00000023
#0183b1:13230000
#018371:0053000000000000
#018321:0000001300000000
#018351:0000000000230000
#0183b0:0000001300000000
#018380:0000000000230000
#019350:13000023000000000000000000000000
#019320:0000005300000000000000000000000000000000000000000000000000000000
#019381:00000013000023000000000000000000
#0193b1:0000000000000000005300000000000000000000000000000000000000000000
#019350:0000001300000000
#019320:0000000000230000
#020360:13
#020320:00000023000000000000000000000000
#020361:00000014000000000000000000000000
#0203a1:00000054
#0213b1:00230000
#020320:0000001300003300
#020360:0000000033000033
#021320:00230000
#022370:0000001300000000
#0223b0:0000000000230000
#0233b0:0000001300002300
#023370:00000000000000000053000000000000
#024360:0000001300000000
#024320:0000000000230000
#025360:13000000003333000000000000000000
#025320:00003333000000000000000023000000
#0263a0:14000000003300000000000000000000
#026370:00003333000000000000000000000000
#0263b0:0000002300000000
#027370:1300002300000000
#0273b0:00003333003300000000000000000000
#028380:0000001300000000
#0283b0:0053
#028390:0000000000530053
#028370:00000053
#0293b0:23
#028341:0000000000130053
#028321:00000053
#029361:23
#029351:0000001300000000
#029321:0053
#029341:0000000000530053
#029361:00000053
#030321:23
#029390:0000000000130053
#0293b0:00000053
#030370:23
#030320:0000001300000000
#030360:00000000000000000023000000000000
#030370:0000000000000013
#0313b0:0023000000000000
#031361:0014000000000000
#031321:0000002400000000
#031360:0000001500000000
#031390:0000000000250000
#032320:0000000000000014
#033360:54
#033320:0024000000000000
#0343a0:1400000000240000
#034360:0000343400000000
#035320:1400000000240000
#035360:0000343400000000
#035361:0000000000140034
#0353a1:00000034
#0363a1:0024000000000000
#038381:00000000000000000000000000000000000000000000000013000053535300002300000000000000000000000000000000000000000000000000000000000000
#038371:0000000000000000000000000000000000000000000000000000000000000000000000000000000000000000000000000000000000000053000000000000000000000000000000000000000000000000000000000000000000000000000000000000000000000000000000000000000000000000000000000000000000000000
#038391:0000000000000000000000000000000000000000000000000000000000000000000000000000000000000000000000000000000000000000005300000000000000000000000000000000000000000000000000000000000000000000000000000000000000000000000000000000000000000000000000000000000000000000
#038350:00000000000000000000000000000000000000000000000000000000000000001300005353530000230000000000000000000000000000000000000000000000
#038340:0000000000000000000000000000000000000000000000000000000000000000000000000000000000000000000000000000000000000000000000000000000000000000000000530000000000000000000000000000000000000000000000000000000000000000000000000000000000000000000000000000000000000000
#038360:0000000000000000000000000000000000000000000000000000000000000000000000000000000000000000000000000000000000000000000000000000000000000000000000000053000000000000000000000000000000000000000000000000000000000000000000000000000000000000000000000000000000000000
#0383a1:00000000000000000000000000000000000000000000000000000000000000000000000000000000130000535353000023000000000000000000000000000000
#038391:0000000000000000000000000000000000000000000000000000000000000000000000000000000000000000000000000000000000000000000000000000000000000000000000000000000000000000000000000000005300000000000000000000000000000000000000000000000000000000000000000000000000000000
#0383b1:0000000000000000000000000000000000000000000000000000000000000000000000000000000000000000000000000000000000000000000000000000000000000000000000000000000000000000000000000000000000530000000000000000000000000000000000000000000000000000000000000000000000000000
#038330:00000000000000000000000000000000000000000000000000000000000000000000000000000000000000000000000013000053535300002300000000000000
#038320:0000000000000000000000000000000000000000000000000000000000000000000000000000000000000000000000000000000000000000000000000000000000000000000000000000000000000000000000000000000000000000000000000000000000000053000000000000000000000000000000000000000000000000
#038340:0000000000000000000000000000000000000000000000000000000000000000000000000000000000000000000000000000000000000000000000000000000000000000000000000000000000000000000000000000000000000000000000000000000000000000005300000000000000000000000000000000000000000000
#038361:0000000000000014
#0393b1:0023000000000000
#039361:0000000000130000
#039321:0000000000000023
#0393b0:0000000000130000
#039370:0000000000000023
#040360:1400005400000000
#0403a0:0054000024000000
#040380:00340000
#040361:0000000014000024
#040321:0000000000540000
#040341:00000034
#042321:1400000000240000
#042361:0000343400000000
#0433a1:1400000000240000
#043361:0000343400000000
#043361:0000000000000014
#044321:0024000000000000
#044361:0000001400000000
#0443a1:0000000000240000
#044321:0000000000000014
#045361:0024000000000000
#0453a1:0000001400000000
#045361:0000000000240000
#045361:000000000000000000000000000000000000000000130053
#045341:000000000000000000000056
#046361:5356000023000000000000000000000000000000000000000000000000000000
#046371:0000001300230000
#046361:0000000000000013
#047341:0023
#0463b0:0000000000000013
#047370:0023
#0473b0:0000000000000013
#0483b0:0023000000000000
#048320:0000001300230000
#0483b0:0000000000000013
#049380:53
#0493b0:0023000000000000
#049320:0000001300240000
#049350:0053
#050350:0000001300000000
#050320:0000000000230000
#050381:0000001300000000
#0503b1:0000000000230000
#051361:0000000000000013
#052321:0000332300000000
#052381:0000000000130000
#0523b1:0000000000000000000000000000000000000000003300002300000000000000
#054351:00130000
#054321:0000002300000000
#054370:0000001300000000
#0543b0:0000000000230000
#054370:0000000000000013
#0553a0:00000000000000540000000000000000
#056370:25
#054321:0000000000000013
#055351:00000000000000540000000000000000
#056321:25
#056351:0000000000130000
#056321:0000000000000000000000000000000000000000003300002300000000000000
#058321:14
#058361:0052000000000000
#059321:26
#0583a0:14
#058380:0052000000000000
#059380:26
#059360:00001424
#0593a0:0000000000540000
#060360:0000001400000000
#060320:00000024
#061360:00001424
#061320:0000000000540000
#061360:0000000000000014
#0623a0:0024000000000000
#062361:0014000054002400
#062321:0000003400340000
#062360:0000001400340000
#0623a0:00005424
#063360:00001424
#063320:0000000000540000
#064360:0000001400000000
#0643a0:00000024
#065360:00001424
#0653a0:0000000000540000
#065360:0000000000000014
#066320:0024000000000000
#066361:0014000000000000
#0663a1:0000003400000000
#066381:0000000000320000
#0663b1:00000053
#067381:26
#066320:0000001400005300
#066360:0000000000320000
#067320:26
#067380:0000000000000013
#0683b0:0023000000000000
#067321:0000000000000013
#068351:0023000000000000
#069351:0000000000000013
#070321:0023000000000000
#0693b0:0000000000000013
#070380:0023000000000000
#071350:16
#074370:00000022000000000000000000000000
#002950:0000001300000000
#002920:0023
#003950:0013000000000000
#003920:00230000
#004980:0000001300000000
#0049b0:0023
#005980:0013000000000000
#0059b0:00230000
#021920:0013
#021960:000000000000000000000000000000000000000000000000000000000000000000000000000000000000000000000000000000000000000000000000000000000000000000000000000000000000000000000000000000000000000000000000000000000000000000000000000000000000000000000000000000000000000000000000000000000000000000000000000000000000000000000000000000000000000000000000000000000000000000000000000000000000000000000000000000000000000000000000000000000000000000000000000000000000000000000000000000000000000000000000000000000000000000000000000000000000000000000000000000000000000000000000000000000000000000000000000000000000000000000000000000000000000000000000000000000000000000000000000000000000000000000000000000000000000000000000000000000000000000000000000000000000000000000000000000000000000000000000000000000000000000000000000000000000000000000000000000000000000000000000000000000000000000000000000000000000000000000000000000000000000000000000000000000000000000000000000000000000000000000000000000000000000000000000000000000000000000000000000000000000000000000000000000000000000000000000000000000000000000000000000000000000000000000000000000000000000000000000000000000000000000000000000000000000000000000000000000000000000000000000000000000000000000000000000000000000000000000000000000000000000000000000000000000000000000000000000000000000000000000000000000000000000000000000000000000000000000000000000000000000000000000000000000000000000000000000000000000000000000000000000000000000000000000000000000000000000000000000000000000000000000000000000000000000000000000000000000000000000000000000000000000000000000000000000000000000000000000000000000000000000000000000000000000000000000000000000000000000000000000000000000000000000000000000000000000000000000000000000000000000000000000000000000000000000000000000000000000000000000000000000000000000000000000000000000000000000000000000000000000000000000000000000000000000000000000000000000000000000000000000000000000000000000000000000000000000000000000000000000000000000000000000000000000000000000000000000000000000000000000000000000000000000000000000000000000000000000000000000000000000000000000000000000000000000000000000000000000000000000000000000000000000000000000000000000000000000000000000000000000000000000000000000000000000000000000000000000000000000000000000000000000000000000000000000000000000000000000000000000000000000000000000000000000000000000000000000000000000000000000000000000000000000000000000000000000000000000000000000000000000000000000000000000000000000000000000000000000000000000000000000000000000000000000000000000000000000000000000000000000000000000000000000000000000000000000000000000000000000000000000000000000000000000000000000000000000000000000000000000000000000000000000000000000000000000000000000000000000000000000000000000000000000000000000000000000000000000000000000000000000000000000000000000000000000000000000000000000000000000005353230000000000000000000000000000000000000000000000000000000000000000000000000000000000000000000000000000000000000000000000000000000000000000000000000000000000000000000000000000000000000000000000000000000000000000000000000000000000000000000000000000000000000000000000000000000000000000000000000000000000000000000000000000000000000000000000000000000000000000000000000000000000000000000000000000000000000000000000000000000000000000000000000000000000000000000000000000000000000000000000000000000000000000000000000000000000000000000000000000000000000000000000000000000000000000000000000000000000000000000000000000000000000000000000000000000000000000000000000000000000000000000000000000000000000000000000000000000000000000000000000000000000000000000000000000000000000000000000000000000000000000000000000000000000000000000000000000000000000000000000000000000000000000000000000000000000000000000000000000000000000000000000000000000000000000000000000000000000000000000000
#0219b1:00000013
#021971:000000000000000000000000000000000000000000000000000000000000000000000000000000000000000000000000000000000000000000000000000000000000000000000000000000000000000000000000000000000000000000000000000000000000000000000000000000000000000000000000000000000000000000000000000000000000000000000000000000000000000000000000000000000000000000000000000000000000000000000000000000000000000000000000000000000000000000000000000000000000000000000000000000000000000000000000000000000000000000000000000000000000000000000000000000000000000000000000000000000000000000000000000000000000000000000000000000000000000000000000000000000000000000000000000000000000000000000000000000000000000000000000000000000000000000000000000000000000000000000000000000000000000000000000000000000000000000000000000000000000000000000000000000000000000000000000000000000000000000000000000000000000000000000000000000000000000000000000000000000000000000000000000000000000000000000000000000000000000000000000000000000000000000000000000000000000000000000000000000000000000000000000000000000000000000000000000000000000000000000000000000000000000000000000000000000000000000000000000000000000000000000000000000000000000000000000000000000000000000000000000000000000000000000000000000000000000000000000000000000000000000000000000000000000000000000000000000000000000000000000000000000000000000000000000000000000000000000000000000000000000000000000000000000000000000000000000000000000000000000000000000000000000000000000000000000000000000000000000000000000000000000000000000000000000000000000000000000000000000000000000000000000000000000000000000000000000000000000000000000000000000000000000000000000000000000000000000000000000000000000000000000000000000000000000000000000000000000000000000000000000000000000000000000000000000000000000000000000000000000000000000000000000000000000000000000000000000000000000000000000000000000000000000000000000000000000000000000000000000000000000000000000000000000000000000000000000000000000000000000000000000000000000000000000000000000000000000000000000000000000000000000000000000000000000000000000000000000000000000000000000000000000000000000000000000000000000000000000000000000000000000000000000000000000000000000000000000000000000000000000000000000000000000000000000000000000000000000000000000000000000000000000000000000000000000000000000000000000000000000000000000000000000000000000000000000000000000000000000000000000000000000000000000000000000000000000000000000000000000000000000000000000000000000000000000000000000000000000000000000000000000000000000000000000000000000000000000000000000000000000000000000000000000000000000000000000000000000000000000000000000000000000000000000000000000000000000000000000000000000000000000000000000000000000000000000000000000000000000000000000000000000000000000000000000000000000000000000000000000000000000000000000000000000000000000000000000000000000000000000000000000000000000000000000000000000000000000000000000000000000000000000000000000000000000000000000000000000000000000000000000000000000000000000000000000000000000000000000000000000000000000000000000000000000000000000000000000000000000000000000000000000000000000000000000000000000000000000000000000000000000000000000000000000000000000000000000000000000000000000000000000000000000000000000000000000000000000000000000000000000000000000000000000000000000000000000000000000000000000000000000000000000000000000000000000000000000000000000000000000000000000000000000000000000000000000000000000000000000000000000000000000000000000000000000000000000000000000000000000000000000000000000000000000000000000000000000000000000000000000000000000000000000000000000000000000000000000000000000000000000000000000000000000000000000000000000000000000000000000000000000000000000000000000000000000000000000000000000000000000000000000000000000000000000000000000000000000000000000000005353
#022971:23
#027971:00000013
#0279b1:000000000000000000000000000000000000000000000000000000000000000000000000000000000000000000000000000000000000000000000000000000000000000000000000000000000000000000000000000000000000000000000000000000000000000000000000000000000000000000000000000000000000000000000000000000000000000000000000000000000000000000000000000000000000000000000000000000000000000000000000000000000000000000000000000000000000000000000000000000000000000000000000000000000000000000000000000000000000000000000000000000000000000000000000000000000000000000000000000000000000000000000000000000000000000000000000000000000000000000000000000000000000000000000000000000000000000000000000000000000000000000000000000000000000000000000000000000000000000000000000000000000000000000000000000000000000000000000000000000000000000000000000000000000000000000000000000000000000000000000000000000000000000000000000000000000000000000000000000000000000000000000000000000000000000000000000000000000000000000000000000000000000000000000000000000000000000000000000000000000000000000000000000000000000000000000000000000000000000000000000000000000000000000000000000000000000000000000000000000000000000000000000000000000000000000000000000000000000000000000000000000000000000000000000000000000000000000000000000000000000000000000000000000000000000000000000000000000000000000000000000000000000000000000000000000000000000000000000000000000000000000000000000000000000000000000000000000000000000000000000000000000000000000000000000000000000000000000000000000000000000000000000000000000000000000000000000000000000000000000000000000000000000000000000000000000000000000000000000000000000000000000000000000000000000000000000000000000000000000000000000000000000000000000000000000000000000000000000000000000000000000000000000000000000000000000000000000000000000000000000000000000000000000000000000000000000000000000000000000000000000000000000000000000000000000000000000000000000000000000000000000000000000000000000000000000000000000000000000000000000000000000000000000000000000000000000000000000000000000000000000000000000000000000000000000000000000000000000000000000000000000000000000000000000000000000000000000000000000000000000000000000000000000000000000000000000000000000000000000000000000000000000000000000000000000000000000000000000000000000000000000000000000000000000000000000000000000000000000000000000000000000000000000000000000000000000000000000000000000000000000000000000000000000000000000000000000000000000000000000000000000000000000000000000000000000000000000000000000000000000000000000000000000000000000000000000000000000000000000000000000000000000000000000000000000000000000000000000000000000000000000000000000000000000000000000000000000000000000000000000000000000000000000000000000000000000000000000000000000000000000000000000000000000000000000000000000000000000000000000000000000000000000000000000000000000000000000000000000000000000000000000000000000000000000000000000000000000000000000000000000000000000000000000000000000000000000000000000000000000000000000000000000000000000000000000000000000000000000000000000000000000000000000000000000000000000000000000000000000000000000000000000000000000000000000000000000000000000000000000000000000000000000000000000000000000000000000000000000000000000000000000000000000000000000000000000000000000000000000000000000000000000000000000000000000000000000000000000000000000053230000000000000000000000000000000000000000000000000000000000000000000000000000000000000000000000000000000000000000000000000000000000000000000000000000000000000000000000000000000000000000000000000000000000000000000000000000000000000000000000000000000000000000000000000000000000000000000000000000000000000000000000000000000000000000000000000000000000000000000000000000000000000000000000000000000000000000000000000000000000000000000000000000000000000000000000000000000000000000000000
#036921:0000000000130000
#036961:0000000000000023
#036970:0000000000130000
#0369b0:0000000000000023
#0519b0:0000001300000000
#051980:0023
#0529b0:0013000000000000
#052980:00230000
#053920:0000001300000000
#053950:0023
#057920:0000001300000000
#057950:0023
#0679b0:0000001300000000
#067980:0023
#067951:0000001300000000
#067921:0023
#0689b1:0013000000000000
#068981:00230000
#068950:0013000000000000
#068920:00230000
#069920:0000001300000000
#069950:0023
#069981:0000001300000000
#0699b1:0023
#070921:0013000000000000
#070951:00230000
#070980:0013000000000000
#0709b0:00230000
