This file was generated by Ched 2.7.0.0.
#TITLE ""
#ARTIST ""
#DESIGNER ""
#DIFFICULTY 0
#PLAYLEVEL
#SONGID ""
#WAVE ""
#WAVEOFFSET 0
#JACKET ""
#REQUEST "ticks_per_beat 480"
#00002: 4
#BPM01: 190
#BPM02: 180
#00008: 01
#07208: 01
#04608: 02
#TIL00: ""
#VOLUME: ""
#HISPEED 00
#MEASUREHS 00
#00219:14
#00313:14
#0051a:14
#00614:14
#00718:14
#00812:14
#0091a:14
#01014:14
#01118:14
#01212:14
#0171a:14
#01814:14
#01918:14
#02012:14
#0211a:14
#02214:14
#02318:14
#02412:14
#03412:0016
#03418:26
#03518:1616
#03612:16
#03618:0016
#03818:16
#03812:0016
#03810:41
#03918:1616
#04012:16
#04018:0016
#04218:16
#04212:0016
#04318:16
#04312:0016
#05118:14
#05110:41
#05214:14
#05914:14
#06018:14
#06112:14
#0621a:14
#06714:14
#06818:14
#07312:14
#07418:14
#07514:14
#0761a:14
#07712:14
#07818:14
#09512:14
#09618:14
#09714:14
#00413:14
#07914:14
#0801a:14
#08118:0016
#08112:26
#0811f:00210000
#08212:1616
#08318:16
#08312:0016
#08310:41
#08512:16
#08518:0016
#08612:1616
#08718:16
#08712:0016
#08912:16
#08918:0016
#09012:16
#09018:0016
#0711f:11
#00119:24
#04418:26
#04612:26
#09112:26
#09318:26
#01310:41
#02510:41
#06310:41
#013380:14
#0143a0:24
#015340:14
#016320:24
#0253a0:1434
#0263a0:24
#027340:1434
#028340:24
#029380:1434
#030380:24
#031320:1434
#032320:24
#037320:1626
#041320:1626
#044380:1636
#045380:3626
#047380:14
#048380:24
#049340:14
#050340:24
#053380:14
#0543a0:24
#055320:14
#056320:24
#0573a0:14
#0583a0:24
#063340:14
#064320:24
#065380:14
#0663a0:24
#069340:14
#071320:24
#084380:1626
#088380:1626
#091320:1636
#092320:3626
#093380:1636
#094380:3626
#0983a0:14343424
