This file was generated by Ched 2.7.0.0.
#TITLE ""
#ARTIST ""
#DESIGNER ""
#DIFFICULTY 0
#PLAYLEVEL
#SONGID ""
#WAVE ""
#WAVEOFFSET 0
#JACKET ""
#REQUEST "ticks_per_beat 480"
#00002: 4
#BPM01: 190
#BPM02: 180
#00008: 01
#07208: 01
#04608: 02
#TIL00: ""
#VOLUME: ""
#HISPEED 00
#MEASUREHS 00
#05016:000013000014
#05017:0013
#0501b:13
#05012:0014
#0501a:001400
#06617:14
#0661a:001400000000
#06614:00140000
#06618:001400
#06612:000000000014000000001400
#06616:0014
#00115:00000000000013000000001300000000
#00112:2400530013000013
#00118:0000130000131300
#0011b:0000000013000013
#00116:0013000000000000
#0011a:24
#00114:00000053000000000000000000000000
#0051b:0000000013000013
#00515:0000000000130000
#00518:00000013
#0051a:14140000
#00512:2400000013000013
#00516:0014000000000000
#00615:0013001300000013
#0061b:00130000
#00612:0016
#00618:00000000000000130000000016000000
#00718:1300000000000013
#00712:13
#00715:00130000
#0071b:0013000013000000
#00812:0013000000001300
#0081b:0013000013000000
#00818:0000001300000000
#00815:00000000130000130000000000000000
#00817:0000000000130000
#0101b:0013000013001300
#01018:00130000
#01015:0000001300000013
#01012:0013000013001300
#01112:13130013
#01115:0000000000000013
#0111b:1313
#01117:0013000000130000
#01116:0000001300000000
#03415:0013001300000000
#03418:00130000
#0341b:0013
#03412:24001313
#03417:0000000000000023
#03712:0014
#03716:0014001400140000
#0371a:14000014
#03915:0000000000000013
#03918:00000000000000000000000000000013
#03912:00000013
#0391b:00000013
#0411b:1313
#04115:0013000000000000
#04112:13131400
#04118:0000001300001414
#04114:00000000000000000000000000140014
#0411a:00240000
#03812:0013000013000013
#03815:0000000000130000
#03818:14000013
#0381b:0013000013000013
#03814:14
#03810:41
#0481b:0013
#04812:000013000014
#04817:000000000013
#04816:000014140000
#0481a:14
#04914:001414000000
#04912:0013
#04918:00140000
#04916:00000013
#0491b:0013
#0511b:1313
#05114:001414000000
#05112:1313
#05118:000000140000000000001300
#05110:41
#0571a:000000000014
#05712:0013
#05716:130000001400140000000014
#05816:0013
#05817:000013
#0581a:24
#05812:000024
#06317:00140000
#06312:24
#06310:41
#06412:000014
#06414:000000000014
#06417:000013
#06419:000000000013
#0641a:001400
#06416:001400
#06512:00140000
#06514:000000000014
#06517:00130000
#0651b:13
#06516:14
#06914:14
#00912:14
#00916:0014001400000000
#0091a:1400140000000014
#01212:00001600000000000000000025151515
#01214:0000000000000000160000000000000000000000000000000015001500150015
#01216:0000001600000000
#01218:0016
#0121a:00000014
#01213:00000000000000000000000000000000000000000000000000000000000000000000000000000000000000000000000000150015001500150015001500150015
#0131a:00000053000013000000000000000000
#01319:0013000013000000
#01312:15151515151515151515151500000000
#01314:0015001500150015001500150015001500150015001500150000000000000000
#01313:00150015001500150015001500150015001500150015001500150015001500150015001500150015001500150015001500000000000000000000000000000000
#0131b:2300530000001313
#01310:41
#01718:0000000000130000
#01715:00000013
#01712:1400140000000013
#0171b:0000000013000013
#0171a:14
#01815:0013130013000000
#01818:00000013000000000000130000001300
#0181b:0000001300001300
#01812:0000001300001300
#02012:0000001300141400
#0201a:0014
#02016:0000000013140000
#02018:0013000000000000
#02015:00000013000000000000000000000000
#0201b:00130000
#02017:0000001300000000
#02316:1400001400000000
#02312:0014000013001300
#0231a:0000140000000024
#0231b:13
#02315:0000000000130000
#02318:00000013
#01912:1400000014000014
#0191a:1400140000000014
#01916:0000000000141400
#0211a:24141400
#02116:0000001400001300
#02117:0000000014000000000000000000000000000000000000000000000000150015
#02115:13
#02112:0000130013000014
#02114:0000000000130000
#02119:00000000000000000000000000001515
#02118:00000000000000000000000000000000000000000000000000000000000000000000000000000000000000000000000000000000000000000015001500150015
#02219:15150000000000000000000000000000
#02217:0015001500000000000000001400000000000000000000000000000000000000
#02218:00150015001500150000000000000000000000000000000000000000000000000000000000000000000000000000000000000000000000001300000000000000
#02212:00001515151500001300000013000000
#02214:0000000000150015001500150000000000000000000000000000000000000000
#02213:00000000000000000015001500150015001500150015001500000000000000000000000000000000000000000000000000000000000000000000000000000000
#02215:0000000000130000
#0221b:00001313
#02418:0013130000000013
#02415:00000013000000000013000000000000
#02412:13000000000013000000000000000013
#0241b:0013
#0241a:0000000000130000
#02414:00000000000000000000001300000000
#02419:00000013
#02413:00000000000000000000000000130000
#02515:0013000013000000
#02512:0000001300000014
#0251b:0013
#02519:0000000000130000
#02516:00000014
#0251a:0000000000000014
#02510:41
#0261a:0014001400000000
#02616:00140000
#02612:0000001400000000
#02618:0000000015152600
#02613:00000000000000000015001500000000
#02718:0013000013001300
#0271b:0000001300000013
#02712:0000000013000013
#02715:0000000000130000
#02812:0013001300001400
#02819:00130000
#0281b:0000001300000000
#02815:0000000013130000
#02818:00000000000000000013001300000000
#0281a:0000000000000014
#0351b:0000002300001300
#03515:0023000000000013
#03518:00000023000000000000000000000013
#03512:00230000
#03516:0023
#03615:0013000000000013
#03618:00130013
#0361b:0000001300130000
#03612:13241324
#04012:13001324
#04014:0013001300000000
#0401b:0013
#04019:0000000000130013
#04017:00000013
#04016:00130000
#0401a:00240000
#0421a:14
#04216:0014001400000000
#04212:00140013
#0421b:00001313
#04218:0000000000130000
#04215:0000000000000013
#0431b:13
#04312:1313000000000000
#04316:0014001400140000
#0431a:00000000000000000000000000140000
#05318:000000140014
#05314:000014
#05312:240000000024
#0531a:000024
#05612:14
#05618:000014140000
#05614:000000000014000000000000
#0561b:13
#05212:1414
#05216:001400001400001400001400
#05214:001400001400
#05218:00140014
#0521a:000000000014000000000014
#06216:001400001400001400001400
#06214:001400001400
#0621a:000000000014000000000014
#06212:2424
#06218:00240024
#06718:16
#06714:0016
#06812:140014
#06818:001400000000000000140000
#06813:001400140014
#06819:000000140000001400000014
#06814:001400
#0681a:000000000014000000000000
#08016:00001400000014000000001200000000
#08018:0000000000122600
#08012:54242400
#0801a:24242400
#08615:0000230000000013
#08618:00000000000023000000000000000013
#0861a:00002414
#08612:0023000024001400
#0881a:1414
#08814:0000240000001414
#08818:00000000140000000000000000140014
#08819:0014001400000000
#08812:2424
#08813:0024002400000000
#0841b:0013000000000000
#08415:0000001300000000
#08419:00000015
#08412:007300000000000000000000000000000000000000000000000000000000000000000000000000000000000000000000000000000000000000000000000000000000000000000000000000000000000000000000000000000000000000000000530000000000000000000000000000000000000000000000000000000000000000000000000000000000000000000000000000000000000000000000000000000000000000000000000000000000000000000000000000000000000000000000150000000000000000000000000000000000000000000000150000000000000000000000000000000000000000000000150000000000000000000000000000000000000000000000150000000000000000000000000000000000000000000000000000000000000000000000000000000000000000000000000000000000000000000000000000000000000000000000000000000000000000000000000000000000000000000000000000000000000000000000000000000000000000000000
#08414:0000000000000000000000000000000000150015001500150000000000000000
#08413:00000000000000000000000000000000000000000000000000000000000000000015001500150015001500150015001500000000000000000000000000000000
#08418:13
#08512:0013000013000014
#0851b:0013000013000023
#08518:1400000000130000
#08515:00000013
#08514:14
#09318:0000000000001616
#0931a:14
#09316:00142400
#09312:2400240000000024
#09414:0000000018000000280000000000000000680068006800680000000000000000
#09412:00000000000000006c6c6c6c6c000000
#09413:0000000000000000000000000000000000000000000000000000000000000000006a006a006a006a006a006a006a006a00000000000000000000000000000000
#09515:0000001300000000
#09512:2400530013000016
#09516:0013000000160000
#0951b:0000000000000013
#09518:00131600
#09514:00000053000000000000000016000000
#0951a:24
#0971a:14
#09718:0000001300000016
#0971b:00531300
#09714:0000000000160000
#09712:0016
#09715:00130000
#09716:00000016
#09717:0013000000000000
#09719:00000053000000000000000000000000
#08717:0013000000000000
#08716:0000001300140014
#07318:12
#07312:12
#07416:12
#0741c:52
#0751c:12
#07512:52
#07612:12
#07618:5212
#07616:0052
#07717:12
#0771c:52
#07817:12
#07812:52
#04616:001400001400001400001400
#04612:241400241400
#0461a:000000240014000000240014
#05414:001400000014001400000014
#05418:001414001414
#0541a:2424
#05412:00240024
#05512:00000014
#0551a:24
#06016:141300
#0601a:001400
#06012:0014
#06116:14
#0611a:000000000014000000000000
#09617:0013000000000000
#09616:0000001300000000
#09619:00000053000000000000000000000000
#0961b:00530000
#09614:00000000000000530000000000000000
#09612:0053
#0921a:00000000000000000034143400000000
#09212:00000000250000000034143400000000
#09216:0000000000000024
#09219:00250000
#09218:0025
#09213:0025
#01515:1300000000001313
#01512:00131300
#01519:00000053000013000000000000000000
#0151b:0013000013000000
#01518:00000000000000000000130000130000
#01517:00530000
#01412:0013000000000000
#0141b:0000001300000000
#01414:00000053000000000000000000000000
#01416:00530000
#01419:00000000000000530000000000000000
#01417:0053
#0031a:14
#0031b:00131300
#00314:00000053000013000000000000000000
#00312:0013000013000000
#00318:0000000000001313
#00315:00000000000000000000130000130000
#00316:00530000
#0021b:0013000000000000
#00212:0000001300000000
#00219:00000053000000000000000000000000
#00217:00530000
#00214:00000000000000530000000000000000
#00216:0053
#08118:0013001300000000
#08115:00130000
#08112:2413
#0811b:00001313
#08116:0000000000000023
#0811a:24
#0811f:00210000
#08212:0000002300001300
#08218:0023000000000013
#08215:00000023000000000000000000000013
#0821b:00230000
#08217:0023
#05916:2414
#07917:12
#0791c:52
#08912:14001313
#08916:0014001400000000
#0891a:00140000
#08915:0000000000130000
#0891b:00000013
#08918:0000000000000013
#09012:13000000000000000000000000140000
#0901b:1313000000000000
#09016:0014001400140000
#0711f:11
#07112:54
#0311a:24
#03116:0034343434343434
#04412:2323230000002323
#04416:00240000
#04418:0023
#04415:0000000000230000
#0441b:0000000000002323
#04512:00000000230000000033000000000000
#0451b:00000000230000000033000000000000
#04518:0023
#04515:0023
#03212:24
#0321a:0000002400000000
#03214:00000024
#03218:0000000000000024
#04712:24
#09812:2400240000242800
#0981a:00240024000024002400002400000000
#09816:00002400000000240000000000000000
#03316:00240000
#0331a:00000024
#03312:00000024
#09112:0000250025252525
#09119:0025250000002525
#0911b:23
#02912:23000023
#02918:0023000000230000
#0291b:0000002300000023
#02915:00232300
#03012:0023000000000000
#03015:00230000
#03018:0000002300000000
#0301b:0022
#03016:0000000000220000
#03019:00000022
#03014:0000000000000022
#01618:2323230000000000
#01615:00230023000000000000000000000000
#01612:0000002424242400
#01616:00000000000000240000000000000000
#0161a:0000000000242400
#00415:2323230000000000
#00418:00230023000000000000000000000000
#0041a:0000002424242400
#00416:00000000000000240000000000000000
#00412:0000000000242400
#08310:41
#08319:0000000000530000
#0831a:00000053
#0831b:0000000000000053
#08313:0053000000000000
#08314:00530000
#08315:0000005300000000
#08312:007300000000000000000000000000000000000000000000000000000000000000000000000000000000000000000000000000000000000000000000000000000000000000000000000000000000000000000000000000000000000000000000000000000000000000000000000000000000000000000000000000000000000000000000000000000000000000000000000000000000000000000000000000000000000000000000000000000000000000000000000000000000000000000000000000000000000000000000000000000000000000000000000000000000000000000000000000000000000000000000000000000000000000000000000000000000000000000000000000000000000000000000000000000000000000000000000000000000000000000000000000000000000000000000000000000000000000000000000000000000000000000000000000000000000000000000000000000000000000000000000000000000000000000000000000000000000000000000
#08318:000000000000000000000000000000000000000000000000000000000000000000000000000000000000000000000000000000000000000000000000000000000000000000000000000000000000000000000000000000000000000000000000000000000000000000000000000000000000000000000000000000000000000000000000000000000000000000000000000000000000000000000000000000000000000000000000000000000000000000000000000000000000000000000000007300000000000000000000000000000000000000000000000000000000000000000000000000000000000000000000000000000000000000000000000000000000000000000000000000000000000000000000000000000000000000000000000000000000000000000000000000000000000000000000000000000000000000000000000000000000000000000000000000000000000000000000000000000000000000000000000000000000000000000000000000000000000000000000
#0315a:64
#0055b:0000000000000053
#00552:54340000
#0055a:00440000
#00556:0024000000000000
#00652:0016
#00658:00000016
#00758:6300000000000013
#0075b:0023000000000000
#00755:00130000
#03752:00005414
#03756:0000000000240000
#0375a:00000014
#04152:0054
#0385b:0023000000000053
#03858:54140000
#03854:54140000
#03852:0023000000000000
#04456:00140000
#04452:0000000000000053
#0445b:0000000000000053
#04558:0053
#0455b:00000013
#04555:0063
#04552:00000013
#04952:0053
#04956:00000023
#05152:0053
#06452:14
#06456:141400
#0645a:001400
#06357:00240000
#06352:54
#06552:00240000
#06556:6414
#06557:00230000
#0655b:6313
#06954:64
#00152:0000000000000063
#0085b:00005343
#00857:0000000000230000
#00852:00000033
#00952:6400000000000018
#00956:0024002400000000
#0095a:0000540000000014
#0115b:6353
#01157:0023000000230000
#01152:00630000
#01156:0000002300000000
#01254:0000000000000000000000000000000000000000000000000025002500250025
#01252:00000000000000000000000025252525
#01253:00000000000000000000000000000000000000000000000000000000000000000000000000000000000000000000000000650065006500650065006500650065
#01352:25252525252525252525252500000000
#01354:0025002500250025002500250025002500250025002500250000000000000000
#01353:00650065006500650065006500650065006500650065006500650065006500650065006500650065006500650065006500000000000000000000000000000000
#0135b:0000000000000053
#0205a:0054
#02056:0000000000241400
#02052:00000014
#02356:5400002400000000
#02352:0024000000000000
#0235a:0000540000000014
#0175a:54
#01752:00640000
#01952:6464
#0195a:00540000
#01956:0000000000240000
#0215a:54545400
#02156:0000002400000000
#02157:0000000024000000000000000000000000000000000000000000000000250025
#02159:00000000000000000000000000002525
#02158:00000000000000000000000000000000000000000000000000000000000000000000000000000000000000000000000000000000000000000055005500550055
#02259:25250000000000000000000000000000
#02257:0025002500000000000000000000000000000000000000000000000000000000
#02258:00550055005500550000000000000000000000000000000000000000000000000000000000000000000000000000000000000000000000000000000000000000
#02252:00002525252500000000000000000000
#02254:0000000000250025002500250000000000000000000000000000000000000000
#02253:00000000000000000065006500650065006500650065006500000000000000000000000000000000000000000000000000000000000000000000000000000000
#02552:0000000000000054
#02658:00000046
#0275b:0000000000000063
#03252:00140000
#0325a:0000000000140000
#03254:00000014
#03258:0000000000000014
#0345b:0053
#03457:0000000000000053
#03556:0063
#0425a:54
#04256:0024002400000000
#04252:00640000
#04356:0054006400540000
#0435a:00000000000000000000000000240000
#05057:0053
#05652:54
#05658:0054
#05756:63
#04752:64
#06656:0054
#06758:66
#06754:0026
#08058:00000016
#0885a:0064
#09258:00005516
#0925a:0000000000240000
#09252:0000000000241600
#09253:0065
#08459:00000015
#08452:00000000000000002525252515000000
#08454:0000000000000000000000000000000000250025002500250000000000000000
#08453:00000000000000000000000000000000000000000000000000000000000000000065006500650065006500650065006500000000000000000000000000000000
#0935a:5414
#09352:0000640000000014
#09356:00545400
#09358:0000000000000016
#09852:00000038
#07358:52
#07456:62
#0755c:62
#07652:52
#07658:0062
#07757:62
#07857:62
#03355:0016
#09454:00180000
#09452:0000001c
#03959:0013
#03954:0013
#0555a:54
#0595a:0014
#05956:0054
#06156:54
#0615a:000000000054000000000000
#09552:0000000000000056
#09152:0000150000000055
#09159:0000000000000065
#0295b:0000000000000053
#01652:00000014
#0165a:00000014
#0045a:00000014
#00452:00000014
#0105b:0013
#01555:13
#08152:0063
#08156:0000000000000063
#08257:0053
#08558:64140000
#08554:64140000
#0855b:0023000000000053
#08552:0023000000000000
#07957:52
#0865a:0014
#08652:0014
#08952:64
#08956:0024002400000000
#0895a:00540000
#09056:0064005400640000
#09052:00000000000000000000000000240000
#09752:13
#001320:0000000000000013
#002360:0023000000000000
#0023b0:0000000013230000
#002321:0000000000132300
#002380:0000000000001323
#002351:0000000000000013
#003351:23
#005321:14240000
#005361:0054000000000000
#0053b1:0000000000000013
#006381:0023000000000000
#007381:13230000
#0073b1:0053000000000000
#007321:0000000013230000
#007380:0000000000132300
#007351:0000000000001323
#0083b1:00001323
#008371:0000000000530000
#009321:14240000
#009361:0054000000000000
#0093a0:00142400
#009360:0000005400000000
#009321:0000000018383828
#0113b1:13230000
#011371:0053000000000000
#011320:00132300
#011360:0000005300000000
#0113b1:00001323
#011371:0000000000530000
#012321:00000000000000000000000015555555
#012331:00000000000000000000000000000000000000000000000000000000000000000000000000000000000000000000000000550055005500550055005500550055
#012341:0000000000000000000000000000000000000000000000000055005500550055
#013321:55555555555555555555555525000000
#013331:00550055005500550055005500550055005500550055005500550055005500550055005500550055005500550055005500000000000000000000000000000000
#013341:0055005500550055005500550055005500550055005500550000000000000000
#0133b1:0000000000000013
#014371:0023000000000000
#014321:0000000013230000
#0143b0:0000000000132300
#014351:0000000000001323
#014380:0000000000000013
#015380:23
#0173a0:14
#017360:0054240000000000
#017321:00140000
#017361:0000005424000000
#019321:14
#019361:0054240000000000
#0193a0:00140000
#019360:0000005424000000
#019321:00001424
#019361:0000000000540000
#0203a1:0014
#020361:0000000000542400
#0213a1:1400340034342400
#021371:0054000000000000
#021361:0000005400000000
#021391:00000000000000000000000000001555
#021381:00000000000000000000000000000000000000000000000000000000000000000000000000000000000000000000000000000000000000000055005500550055
#021371:0000000000000000000000000000000000000000000000000000000000550055
#022391:55552500000000000000000000000000
#022381:00550055005500550000000000000000000000000000000000000000000000000000000000000000000000000000000000000000000000000000000000000000
#022371:0055005500000000000000000000000000000000000000000000000000000000
#022320:00001555555525000000000000000000
#022330:00000000000000000055005500550055005500550055005500000000000000000000000000000000000000000000000000000000000000000000000000000000
#022340:0000000000550055005500550000000000000000000000000000000000000000
#023360:14240000
#023320:0054000000000000
#0233a1:00142400
#023361:0000005400000000
#0253b1:1323000000000000
#025381:0000132300000000
#025321:0000000000000014
#026361:0024000000000000
#027321:1323000000000000
#027351:0000132300000000
#0273b1:0000000000000013
#028371:0023000000000000
#029321:1323000000000000
#029380:0013230000000000
#0293b0:0000001323000000
#029351:0000000013230000
#029380:0000000000132300
#0293b0:0000000000000013
#030370:0023000000000000
#0313a0:14
#031360:0034343434343434
#032360:24
#032321:14240000
#0323a1:0000001400240000
#033361:00140000
#033351:0026
#0333a1:00000014
#0343a1:24
#0343b1:0013
#034371:00000023
#034371:0000000000000013
#0353b1:0023000000000000
#035361:0013
#035321:00000023
#037321:13230000
#0373b0:00132300
#037321:00001424
#037361:0000000000540000
#038341:14240000
#038321:0053000000000000
#038380:14240000
#0383b0:0053000000000000
#0383b0:0000000000000013
#039370:0033003300000000
#039390:00332300
#039321:0013003300000000
#039341:00332300
#041321:0014
#041341:00000000000000000054000024000000
#0423a1:14240000
#042361:0054000000000000
#042320:00142400
#042360:0000005400000000
#043360:0014000000000000
#0433a0:0000002400000000
#043361:0000001400000000
#043321:0000000000240000
#043360:0000000000140000
#0433a0:00000000000000000000000000540000
#044360:24
#044320:0000000000000013
#045350:0023000000000000
#0443b1:0000000000000013
#045381:0023000000000000
#045381:0013
#0453b1:00000000000000000033333323000000
#045350:0013
#045320:00000000000000000033333323000000
#047320:14
#047360:0000000054545454
#047350:00000000000000000054005400540054
#048360:24
#0493b0:132300000000
#049320:0013
#049360:00000053
#050320:23
#050370:0013
#0503b0:000000000023
#051320:0013
#051350:000000000023
#053320:145454240000
#053330:005400540054000000000000
#0553a0:14
#055360:0000545454542400
#055370:00000000005400540054005400000000
#056320:14
#056340:002400
#056380:0014
#0573a0:24
#057361:13
#057321:002300
#0583a1:145454545454240000000000
#058391:005400540054005400540054000000000000000000000000
#058321:000000000000000014545454
#058331:000000000000000000000000000000000054005400540054
#059321:24
#059360:14
#059380:003400000000000000000000
#0593a0:003400240000
#059361:0014
#059321:000000000000000000545454
#059331:000000000000000000000000000000000000005400540054
#060321:24
#0603a1:000000000000145454545454
#060391:000000000000000000000000005400540054005400540054
#0613a1:24
#061360:14
#061320:000000545424000000000000
#061330:000000000000005400540000000000000000000000000000
#0613a1:000000000014000000000000
#061361:000000000000000054545454
#061371:000000000000000000000000000000000054005400540054
#062361:24
#063321:1400000054545454
#063371:00540000
#063331:00000000000000000054005400540054
#064321:24
#063360:0000000014545454
#063370:00000000000000000054005400540054
#064360:24
#065360:1424
#065320:00540000
#0653b1:1323
#065371:00530000
#066361:0014
#0663a1:000000000024
#067381:16
#067341:0056
#068381:26
#069341:14
#069321:00000054
#069331:0000000000000054
#070321:5400545454545454
#070331:00005400005400540054005400540054
#071321:24
#073381:12
#0743c1:22
#074360:12
#075320:22
#0753c1:12
#076381:22
#076320:12
#076360:0022
#076381:0012
#0773c1:22
#077370:12
#078320:22
#078371:12
#0793c1:22
#079370:12
#080320:24
#081320:0013
#081360:00000023
#081360:0000000000000013
#082320:0023000000000000
#082370:0013
#0823b0:00000023
#0833b0:13
#083380:0000002300000000
#083321:132300000000000000000000000000000000000000000000000000000000000000000000000000000000000000000000000000000000000000000000000000000000000000000000000000000000000000000000000000000000000000000000000000000000000000000000000000000000000000000000000000000000000000000000000000000000000000000000000000000000000000000000000000000000000000000000000000000000000000000000000000000000000000000000000000000000000000000000000000000000000000000000000000000000000000000000000000000000000000000000000000000000000000000000000000000000000000000000000000000000000000000000000000000000000000000000000000000000000000000000000000000000000000000000000000000000000000000000000000000000000000000000000000000000000000000000000000000000000000000000000000000000000000000000000000000000000000000000
#083350:0013
#083320:0000000000000023
#083381:000000000000000000000000000000000000000000000000000000000000000000000000000000000000000000000000000000000000000000000000000000000000000000000000000000000000000000000000000000000000000000000000000000000000000000000000000000000000000000000000000000000000000000000000000000000000000000000000000000000000000000000000000000000000000000000000000000000000000000000000000000000000000000000000132300000000000000000000000000000000000000000000000000000000000000000000000000000000000000000000000000000000000000000000000000000000000000000000000000000000000000000000000000000000000000000000000000000000000000000000000000000000000000000000000000000000000000000000000000000000000000000000000000000000000000000000000000000000000000000000000000000000000000000000000000000000000000000000
#084320:132300000000000000000000000000000000000000000000000000000000000000000000000000000000000000000000000000000000000000000000000000000000000000000000000000000000000000000000000000000000000000000000000000000000000000000000000000000000000000000000000000000000000000000000000000000000000000000000000000000000000000000000000000000000000000000000000000000000000000000000000000000000000000000000000000000000000000000000000000000000000000000000000000000000000000000000000000000000000000000000000000000000000000000000000000000000000000000000000000000000000000000000000000000000000000000000000000000000000000000000000000000000000000000000000000000000000000000000000000000000000000000000000000000000000000000000000000000000000000000000000000000000000000000000000000000000000000000000
#0843b0:00132300
#084321:00000000000000001555555525000000
#084331:00000000000000000000000000000000000000000000000000000000000000000055005500550055005500550055005500000000000000000000000000000000
#084341:0000000000000000000000000000000000550055005500550000000000000000
#085381:14240000
#0853b1:0053000000000000
#085340:14240000
#085320:0053000000000000
#0853b0:0000000000000013
#086370:0023000000000000
#087320:1323000000000000
#0873b0:0000132300000000
#087320:0000000014240000
#0873a0:0000000000001424
#0883a0:0014
#088380:00000000000000000054000024000000
#089320:14240000
#089360:0054000000000000
#0893a1:00142400
#089361:0000005400000000
#090361:0014000000000000
#090321:0000002400000000
#090360:0000001400000000
#0903a0:0000000000240000
#090361:0000000000140000
#090321:00000000000000000000000000540000
#091361:24
#091321:0000000000000015
#092361:0022000000000000
#091390:0000000000000015
#092380:0022000000000000
#092380:00001526
#0923a0:00000000000000000034343400000000
#092331:0015
#092321:00000000000000000034343426000000
#0933a1:1400005424000000
#093361:0054340000000000
#093320:0000140000542400
#093360:0000005434000000
#095320:0000000000000016
#096320:0023000000000000
#0963b0:0000000013230000
#096351:0000000000132300
#096380:0000000000001323
#096321:0000000000000013
#097321:23
#001960:0013000000000000
#001920:00230000
#0029b0:0013000000000000
#002970:00230000
#002920:0000001300000000
#002960:0023
#003920:0013000000000000
#003960:00230000
#013990:0013000000000000
#0139b0:00230000
#014920:0013000000000000
#014960:00230000
#0149b0:0000001300000000
#014970:0023
#0159b0:0013000000000000
#015970:00230000
#0309b0:0012
#0309a0:00000000000000000022000000000000
#030960:0000000000120000
#030950:00000000000000000000002200000000
#030990:00000012
#030980:00000000000000000000000000220000
#030940:0000000000000012
#030930:00000000000000000000000000000022
#083920:13
#083950:0000002300000000
#083980:0013
#0839b0:0000000000000023
#084920:130000000000000000000000000000000000000000000000000000000000000000000000000000000000000000000000000000000000000000000000000000000000000000000000000000000000000000000000000000000000000000000053230000000000000000000000000000000000000000000000000000000000000000000000000000000000000000000000000000000000000000000000000000000000000000000000000000000000000000000000000000000000000000000000000000000000000000000000000000000000000000000000000000000000000000000000000000000000000000000000000000000000000000000000000000000000000000000000000000000000000000000000000000000000000000000000000000000000000000000000000000000000000000000000000000000000000000000000000000000000000000000000000000000000000000000000000000000000000000000000000000000000000000000000000000000000000000000000
#094920:00000000000000001c5c5c5c2c000000
#094940:0000000000000000000000000000000000580058005800580000000000000000
#094930:0000000000000000000000000000000000000000000000000000000000000000000000000059005a005a005a005a005a00000000000000000000000000000000
#095960:0013000000000000
#095920:00230000
#096970:0013000000000000
#0969b0:00230000
#096960:0000001300000000
#096920:0023
#097970:0013000000000000
#0979b0:00230000
