This file was generated by Ched 2.7.0.0.
#TITLE ""
#ARTIST ""
#DESIGNER ""
#DIFFICULTY 0
#PLAYLEVEL
#SONGID ""
#WAVE ""
#WAVEOFFSET 0
#JACKET ""
#REQUEST "ticks_per_beat 480"
#00002: 4
#BPM01: 190
#BPM02: 180
#00008: 01
#07208: 01
#04608: 02
#TIL00: ""
#VOLUME: ""
#HISPEED 00
#MEASUREHS 00
#05018:000013000013
#05015:0013
#06412:0000001400000000
#0641a:000014
#06416:000000000014
#06615:13
#06618:000053535353530000000000
#06619:000000000053005300530053000000000000000000000000
#06714:14
#0681a:14
#06813:0014
#06814:001400000000
#06819:001400
#06818:000014
#06812:000000000014
#00118:0000130000000013
#00112:0000001300001300
#0011b:0013
#00115:0013000000000000
#0011a:24
#00215:0013000000130000
#00218:00130013
#00212:0000001300000013
#0021b:0013
#0031b:0013000000000000
#00315:0000130000000013
#00318:0000001300001300
#00312:0013
#0041b:0013000000000000
#00418:0000333300002400
#0051b:00001313
#00515:0000000000130000
#00512:2400000000000013
#00618:0000130000000013
#0061a:0014
#00612:00000014
#00615:0000001300000000
#00715:13001313
#00718:0000000000130000
#0071b:0000000000000013
#00812:0013000000000000
#00818:00130000
#00815:0000001300000000
#0081b:0013
#00918:00001313
#00915:0000000000130000
#00912:0000000000000013
#0101b:0013000000001300
#01015:0000130000000013
#01018:0000001300000000
#01012:0013
#0111b:13
#01118:0000130000000013
#01115:00000013
#01418:0013000000130000
#01415:00131300
#0141b:0000001300000013
#01412:00000013
#01512:0013000000000000
#01518:0000130000000013
#01515:0000001300001300
#0151b:0013
#01615:0013000000000000
#01612:0000333300002400
#0171a:14
#01715:00001313
#01718:0000000000130000
#0171b:0000000000000013
#01812:0013001300000013
#01818:00130013
#0181b:0013
#01815:0000000000130000
#0201a:0014001400000000
#02016:00140000
#02012:0014
#02118:00130000
#02115:0000000000000013
#0211b:23
#02212:0013000000000013
#0221b:0013
#02215:0000000000130000
#02218:00000013
#0231b:13
#02318:00130013
#02315:0000000000130000
#02312:0000000000000023
#0241b:0013001300000000
#02415:00130000
#02412:0014
#0241a:00000014
#02512:13001313
#02518:0013000000130000
#02515:00130000
#0251b:0000001300000013
#02510:41
#0271b:13001313
#02715:0013000000130000
#02718:00130000
#02712:0000001300000013
#0281b:0000000000000013
#02815:0013333300000000
#03415:0013000000000000
#03418:00130000
#03412:0000001300000000
#0341b:0013
#0341a:24
#03414:0000000000000024
#03518:0000000000000013
#03612:1313
#03618:0013000000000013
#0361b:0000001300130000
#03615:00230023
#03712:1314
#03718:0013000000000000
#0371b:0000001300000000
#03715:00230000
#03818:1300000000130024
#03815:00130013
#0381b:00130000
#03812:1313
#03810:41
#04218:0014
#04214:0000000000140000
#0421a:00000014
#04212:0000000000000014
#04318:1400001400000000
#04314:0014000000000000
#04818:0013
#04815:000000000013
#04812:001300
#0491b:13
#04918:001300000000
#04915:001300
#04912:0013
#05112:13
#05115:001300000000
#05118:001300
#0511b:0013
#05110:41
#05212:131300
#05218:001300000000
#0521b:000000130013
#05215:000013
#05719:000000000013
#0571b:13
#05712:13
#0561b:0013
#05618:13
#05812:000000132300
#05819:23
#06215:001300000000
#0621b:231300
#06218:000013
#06212:000000230013
#06317:00140000
#0631a:24
#06310:41
#06012:13
#0601b:13
#06515:00140000
#0651b:000000000013
#06512:14
#06918:14
#08115:0013000000000000
#08118:00130000
#08112:0000001300000000
#0811b:0013
#0811a:24
#08114:0000000000000024
#0811f:00210000
#0841b:13000000000000000000000000000000000000000000000000000000000000000000001300000013000000130000001300000000000000000000000000000000
#08418:0013000000000000
#08415:00130000
#08412:0000001300000000
#0841a:0000000000000000000000000000000014141414141414140000000000000000
#08419:00000000000000000000000000000000000000000000000000000000000000000015000000150000001500000015000000000000000000000000000000000000
#08512:00130013
#08518:0013000000130024
#0851b:0000001300000000
#08515:1313
#08612:0000000000000014
#08812:0014
#08818:23230000
#08815:0023000000000000
#0881b:0000002300000000
#09518:0013001300000000
#09515:00130013
#09512:2313
#0951b:0000000000130000
#0951a:0000000000000014
#09612:0013000000130000
#09618:0000130000000013
#09615:0000001300001300
#0961b:0013
#0971b:1313
#09715:0013001300000000
#09718:00130013
#09712:0000000000130014
#02618:0013333300000000
#02612:00000026
#0191a:14540000
#01912:0000000014005454
#08215:0000000000000013
#08718:1414
#08714:0014001400140000
#08712:0000000000000014
#0871a:00240024
#01212:0014000000000000
#01218:00140000
#01214:0000001400002400
#0121a:0014
#08914:0014
#08918:0000000000140000
#08912:00000014
#0891a:0000000000000014
#09014:1400001400000000
#09018:0014000000000000
#03915:0000000000000013
#0401b:1313
#04015:0013000000000013
#04012:0000001300130000
#04018:00230023
#0411b:13
#04115:0013000000000000
#04112:0000001300000000
#0411a:0014
#04118:00230000
#0711f:11
#0331a:00240000
#03312:00240000
#03112:24
#08018:26
#08015:00260000
#08012:0026
#04414:2424000000002400
#04418:0000240000240000
#04412:0024
#0441a:0000000000000024
#04514:00240000
#04518:0024
#0931a:24
#09318:0000000000000024
#09312:0024
#09413:0024240000000000
#0941a:0024
#09412:0024
#09419:0024240000000000
#0291b:0000002300000023
#02915:23230023
#02918:0023000000230000
#02912:0023
#03015:00230023
#03018:0000002300230000
#03012:0023
#0301b:0000000000000023
#0321a:24
#03214:0000240000240024
#03218:0000002400002400
#04612:24
#09118:2424000000002400
#09114:0000240000240000
#0911a:0024
#09112:0000000000000024
#09218:00240000
#09214:0024
#04718:23
#05312:23
#05318:000023
#05315:000000000023
#0541a:24
#05512:23
#0981a:0024000024000000
#09816:00240000
#09812:0000002400000000
#01310:41
#08310:41
#0831b:0000005300000000
#08318:53
#0831a:00530000
#08319:0053000000000000
#03152:54
#06754:64
#06752:0014
#08052:0016
#08058:16
#08055:00160000
#0045b:0063000000000000
#00458:00000014
#00552:0000140000000063
#0065a:0014
#00652:00000014
#00755:53
#0085b:0063
#00858:00000014
#0115b:63
#01158:00630000
#01655:0063000000000000
#01652:00000014
#0175a:64
#02155:0000000000000053
#02158:00530000
#0215b:53
#0235b:53
#02358:00530000
#02452:0014
#0245a:00000014
#0255b:0000000000000053
#02658:0023000016000000
#02652:00000016
#02752:0000000000000063
#02852:0016
#02855:0023000000000000
#03454:0000000000000054
#0345b:0053
#03752:0054
#03755:00000014
#04358:0000005400000000
#0435a:0000000000140000
#04458:00140000
#0445a:0000000000000054
#04558:0054
#0455a:00000014
#04952:0053
#0515b:0063
#0565b:0063
#05658:63
#05956:0014
#0645a:14
#06452:0000001400000000
#06357:00240000
#0635a:54
#06555:00240000
#06552:6414
#06958:54
#0715a:14
#08852:0054
#08856:00000014
#0845a:0000000000000000000000000000000054545454545454541400000000000000
#08459:00000000000000000000000000000000000000000000000000000000000000000025000000250000002500000025000000000000000000000000000000000000
#0845b:00000000000000000000000000000000000000000000000000000000000000000000002300000023000000230000002300000000000000000000000000000000
#09358:00140000
#0935a:64
#09352:0054
#09454:00000014
#09458:00000014
#0945a:0054
#09452:0054
#0955a:0000000000000014
#09752:0000000000000014
#01254:00000054
#0295b:0000000000000053
#08154:0000000000000054
#0815b:0063
#02056:00000014
#02052:0054
#02252:0053000000000000
#0335a:0014
#03352:0014
#03552:0014
#03858:0000000000000064
#0395a:0014
#08252:0014
#08558:0000000000000064
#0865a:0014
#09154:00140000
#09152:0000000000000064
#09254:0064
#09252:00000014
#04758:53
#05552:53
#0985a:00000014
#09054:0000006400000000
#09052:0000000000140000
#0415a:0064
#04157:00000014
#0043b0:0013000000000000
#004380:0000333334002400
#005320:14240000
#005320:0000000000000013
#006350:0023000000000000
#007350:13
#007320:00230000
#0083b0:0013
#008380:00000024
#009320:13230000
#0113b0:1323
#011380:00330000
#012340:00000014
#014320:23
#016350:0013000000000000
#016320:0000333334002400
#0173a0:14
#017360:00240000
#020320:0014
#020360:00000024
#0213b0:1300000033332300
#021380:00330000
#021350:0000000000000013
#022320:0033000000000000
#022350:0000002300000000
#0233b0:1323
#023380:00330000
#0253b0:0000000000000013
#026380:0033333326000000
#027320:0000000000000013
#028350:0033333300000000
#028320:0026
#0293b0:0000000000000013
#030380:0023000000000000
#031320:14
#031360:00000024
#0333a0:00142400
#033321:00142400
#0343b1:0013
#034381:00000023
#034341:0000000000000014
#035321:00003434340034002400000000000000
#037321:0014
#037351:00000024
#038381:0000000000000014
#0393a1:0034343424000000
#0413a1:0014
#041371:00000024
#042321:14240000
#043381:0000001400000000
#0433a1:0000000000240000
#0443a1:0000000000000014
#045381:0024000000000000
#045381:0014
#0453a1:00000024
#046321:1434
#046331:003400000034003400000034
#046341:003434003434
#046351:00340034
#047321:24
#047380:13
#0473b0:0000000053535353
#0473a0:00000000000000000053005300530053
#0483b0:23
#049320:0013
#050350:23
#0513b0:0013
#051380:000000000023
#053320:135353230000
#053330:005300530053000000000000
#0543a0:1434
#054390:003400000034003400000034
#054380:003434003434
#054370:00340034
#0553a0:24
#055321:13
#055351:000000530053005300230000
#055341:000053535300
#056381:130000000023
#0563b1:000000000000000033535353330000000000000000000000
#0563a1:000000000000000000000000000000000053005300530053000000000000000000000000000000000000000000000000
#057351:000000001353230000000000
#057341:000000000000000000530053000000000000000000000000
#058391:135353532300000000000000
#058381:005300530053005300000000000000000000000000000000
#058321:000000000000000013535353
#058331:000000000000000000000000000000000053005300530053
#059321:33
#059361:0024
#060351:000000000000135353532300
#060361:000000000000000000000000005300530053005300000000
#0613a1:145454240000000000000000
#061391:005400540054000000000000000000000000000000000000
#061321:000000000000145454240000
#061331:000000000000000000000000005400540054000000000000
#0633a1:1400000054545454
#063371:00540000
#063391:00000000000000000054005400540054
#0643a1:24
#065321:1424
#065351:00540000
#067341:14
#067321:0024
#069381:14
#0693a1:00000054
#069391:0000000000000054
#0703a1:5400545454545454
#070391:00005400005400540054005400540054
#0713a1:24
#073321:14
#074321:24
#074380:14
#075380:24
#075341:14
#076341:24
#0763a0:1424
#076321:0014
#077321:24
#0773a0:14
#0783a0:24
#078341:14
#079341:24
#079380:14
#080380:26
#0813b0:0013
#081380:00000023
#081340:0000000000000014
#082320:00003434340034002400000000000000
#083350:0013
#083340:0000000000330000
#083330:00000033
#083320:0000000000000023
#0843a0:0000000000000000000000000000000014545454545454542400000000000000
#084390:00000000000000000000000000000000000000000000000000000000000000000055000000550000005500000055000000000000000000000000000000000000
#0843b0:00000000000000000000000000000000000000000000000000000000000000000000005300000053000000530000005300000000000000000000000000000000
#085380:0000000000000014
#0863a0:0034343424000000
#088320:0014
#088360:00000024
#0893a0:14240000
#090340:0000001400000000
#090320:0000000000240000
#091320:0000000000000014
#092340:0024000000000000
#092340:0014
#092320:00000024
#0933a0:14
#093380:00240000
#093320:0014
#093340:00000024
#0943a0:0014
#094380:00000024
#094321:0014
#094341:00000024
#0983a1:00001424
#0199a0:140000000000000000000000000000000000000000000000000000000000000000000000000000000000000000000000000000000000000000000000000000000000000000000000000000000000000000000000000000000000000000000000000000000000000000000000000000000000000000005454240000000000000000000000000000000000000000000000000000000000000000000000000000000000000000000000000000000000000000000000000000000000000000000000000000000000000000000000000000000000000000000000000000000000000000000000000000000000000000000000000000000000000000000000000000000000000000000000000000000000000000000000000000000000000000000000000000000000000000000000000000000000000000000000000000000000000000000000000000000000000000000000000000000000000000000000000000000000000000000000000000000000000000000000000000000000000000000000000000000000000000000000000000000000000000000000000000000000000000000000000000000000000000000000000000000000000000000000000000000000000000000000000000000000000000000000000000000000000000000000
#019920:000000000000000000000000000000000000000000000000000000000000000000000000000000000000000000000000000000000000000000000000000000000000000000000000000000000000000000000000000000000000000000000000000000000000000000000000000000000000000000000000000000000000000000000000000000000000000000000000000000000000000000000000000000000000000000000000000000000000000000000000000000000000000000000000000000000000000000000000000000000000000000000000000000000000000000000000000000000000000000000000140000000000000000000000000000000000000000000000000000000000000000000000000000000000000000000000000000000000000000000000000000000000000000000000000000000000000000000000000000000000000000000000000000000000000000000000000000000000000000000000000000000000000000000000000000000000000000000000000000000000000000000000000000000000000000000000000000000000000000005454240000000000000000000000000000000000000000000000000000000000000000000000000000000000000000000000000000000000000000000000
#066980:000013535353230000000000
#066990:000000000053005300530053000000000000000000000000
#083980:13
#0839b0:0000002300000000
