This file was generated by Ched 2.7.0.0.
#TITLE ""
#ARTIST ""
#DESIGNER ""
#DIFFICULTY 0
#PLAYLEVEL
#SONGID ""
#WAVE ""
#WAVEOFFSET 0
#JACKET ""
#REQUEST "ticks_per_beat 480"
#00002: 4
#BPM01: 190
#BPM02: 180
#00008: 01
#07208: 01
#04608: 02
#TIL00: ""
#VOLUME: ""
#HISPEED 00
#MEASUREHS 00
#0051a:1414
#00614:1414
#00618:00140014
#01714:00140014
#0171a:1414
#07312:14
#07418:14
#07514:14
#0761a:14
#07614:0014
#07814:14
#0951a:1414
#09514:00140014
#0971a:14
#09714:00140000
#09718:0014
#09712:00000014
#00114:00140000
#0011a:2414
#00212:1414
#00218:00140000
#0031a:1414
#00314:00140000
#00712:1414
#00818:1414
#00814:00140014
#01014:1414
#01018:00140014
#01218:1414
#01214:00140014
#01412:0014
#0151a:1414
#01514:00140000
#01612:1414
#01618:00140000
#01818:14
#01918:00140014
#01912:1414
#02014:14
#02114:00140014
#02118:14
#0211a:0014
#02218:14
#02318:00140014
#02314:14
#02312:0014
#02414:14
#02518:14
#0251a:0014
#02519:00340034
#02510:41
#02618:14
#02619:00340000
#02714:14
#02712:0014
#02713:00340034
#02814:14
#02813:00340000
#0291a:14
#02918:0014
#02919:00340034
#0301a:14
#03019:00340000
#03412:0014
#0341a:00000014
#03418:00140000
#03414:24
#0361a:14
#03614:00140000
#03618:0014
#03612:00000014
#0371a:14
#03714:00140000
#03718:0024
#03712:00000024
#03818:0014
#03812:00000014
#0381a:14
#03814:00140000
#03810:41
#04012:14
#04018:00140000
#04014:0014
#0401a:00000014
#04218:1616
#04212:00160016
#0431a:14
#04818:0014
#04718:14
#04912:14
#04914:0014
#05018:0014
#05314:14
#05412:14
#0551a:14
#05614:0014
#0571a:14
#05714:0014
#05818:14
#05812:0014
#05918:14
#0631a:14
#06310:41
#06414:0014
#06612:14
#06618:0014
#06714:14
#0681a:14
#06814:0014
#0771a:14
#07918:14
#08118:0014
#08112:00000014
#08114:00140000
#0811a:24
#0811f:00210000
#08312:14
#08318:00140000
#08314:0014
#0831a:00000014
#08310:41
#08414:14
#08418:00140000
#08412:0024
#0841a:00000024
#08514:0014
#0851a:00000014
#08512:14
#08518:00140000
#0871a:14
#08714:00140000
#08718:0014
#08712:00000014
#08912:1616
#08918:00160016
#09618:1414
#09612:00140014
#04112:14
#04118:00140000
#04114:0024
#06918:14
#08818:14
#08814:00140000
#0881a:0024
#09012:14
#0711f:11
#0331a:00240000
#0461a:2424
#04612:2424
#03114:24
#03514:24
#04412:26
#04418:0026
#04514:2424
#04518:00240000
#08012:2626
#08018:00260000
#08218:24
#09118:26
#09112:0026
#09218:2424
#09214:00240000
#03918:24
#08614:24
#0931a:2424
#09312:2424
#09818:24
#0981a:00340000
#09414:2424
#09418:00240000
#01310:41
#05110:41
#00452:0014
#01652:0014
#01858:54
#02054:64
#02258:54
#02454:64
#02558:54
#0255a:0054
#02658:54
#0265a:0014
#02754:64
#02752:0064
#02854:64
#02852:0014
#0295a:64
#02958:0064
#0305a:64
#03058:0014
#03154:64
#0335a:0014
#03554:64
#03552:0014
#0435a:64
#04554:0014
#04458:0016
#04452:16
#04758:64
#04952:64
#04954:0054
#05354:54
#05454:0014
#05452:64
#0555a:54
#05958:64
#0635a:54
#06754:64
#08052:0016
#08258:54
#0825a:0014
#09158:16
#09152:0016
#09258:0014
#0395a:0014
#03958:54
#08654:64
#08652:0014
#0985a:00000014
#09858:54
#06958:64
#09052:54
#09454:0014
#004320:14342400
#0093a0:1424
#011320:1424
#013380:14
#0143a0:24
#018380:14
#0183a0:0024
#020340:14
#020320:0024
#022380:14
#0223a0:0024
#024340:14
#024320:0024
#025380:14
#025390:00340034
#0253a0:0034
#026380:34
#026390:00340000
#0263a0:0024
#027340:14
#027330:00340034
#027320:0034
#028340:34
#028330:00340000
#028320:0024
#0293a0:14
#029390:00340034
#029380:0034
#0303a0:34
#030390:00340000
#030380:0024
#031340:14
#032320:24
#0333a0:00142400
#035340:14
#035320:00342400
#039380:14
#0393a0:00342400
#0433a0:14
#043380:00000024
#047380:14
#0473a0:0000000054545454
#047390:00000000000000000054005400540054
#0483a0:24
#049320:14
#049340:0034
#050320:24
#051340:14
#051320:0024
#052380:14
#0523a0:0024
#053340:14
#053320:0034
#054320:34
#054340:0024
#0553a0:14
#055380:0000000054545454
#055390:00000000000000000054005400540054
#056380:24
#059380:14
#0593a0:0000000054545454
#059390:00000000000000000054005400540054
#0603a0:24
#060340:0014
#061320:34
#061340:0034
#062320:34
#062340:0024
#0633a0:14
#063380:0000000054545454
#063390:00000000000000000054005400540054
#064380:24
#0653a0:1424
#067340:14
#067320:0024
#069380:14
#0693a0:00000054
#069390:0000000000000054
#0703a0:5400545454545454
#070390:00005400005400540054005400540054
#0713a0:24
#082380:14
#0823a0:00342400
#086340:14
#086320:00342400
#090320:14
#090340:00000024
#098380:14
#0983a0:00343424
